<?xml version="1.0" standalone="no"?>
<!DOCTYPE svg PUBLIC "-//W3C//DTD SVG 1.1//EN" "http://www.w3.org/Graphics/SVG/1.1/DTD/svg11.dtd" >
<svg xmlns="http://www.w3.org/2000/svg">
<metadata>Generated by IcoMoon</metadata>
<defs>
<font id="eden-icons" horiz-adv-x="1024">
<font-face units-per-em="1024" ascent="960" descent="-64" />
<missing-glyph horiz-adv-x="1024" />
<glyph unicode="&#x20;" horiz-adv-x="512" d="" />
<glyph unicode="&#xe900;" glyph-name="add-circle" d="M534.475 886.4c-122.212 0-239.418-48.549-325.835-134.965s-134.965-203.623-134.965-325.835c0-122.214 48.548-239.419 134.966-325.834 86.414-86.418 203.62-134.966 325.834-134.966 122.216 0 239.421 48.548 325.835 134.967 86.418 86.412 134.965 203.617 134.965 325.833 0 122.214-48.548 239.42-134.966 325.835-86.414 86.416-203.62 134.965-325.834 134.965zM534.475 828.8c106.937 0 209.492-42.48 285.105-118.094 75.616-75.613 118.095-178.168 118.095-285.106s-42.479-209.493-118.095-285.104c-75.612-75.617-178.166-118.096-285.105-118.096s-209.493 42.479-285.105 118.095c-75.615 75.613-118.095 178.168-118.095 285.105 0 106.935 42.48 209.491 118.095 285.105s178.17 118.095 285.105 118.095zM534.475 627.2c14.315 0 26.191-10.444 28.423-24.128l0.377-4.672v-345.6c0-15.906-12.894-28.8-28.8-28.8-14.315 0-26.191 10.444-28.423 24.128l-0.377 4.672v345.6c0 15.906 12.894 28.8 28.8 28.8zM707.275 454.4c15.906 0 28.8-12.894 28.8-28.8 0-14.315-10.444-26.191-24.128-28.423l-4.672-0.377h-345.6c-15.906 0-28.8 12.894-28.8 28.8 0 14.315 10.444 26.191 24.128 28.423l4.672 0.377h345.6z" />
<glyph unicode="&#xe901;" glyph-name="add" d="M892.875 464c21.208 0 38.4-17.192 38.4-38.4 0-19.44-14.446-35.507-33.189-38.049l-5.211-0.351h-716.8c-21.208 0-38.4 17.192-38.4 38.4 0 19.44 14.446 35.507 33.189 38.049l5.211 0.351h716.8zM534.475 822.4c19.44 0 35.507-14.446 38.049-33.189l0.351-5.211v-716.8c0-21.208-17.192-38.4-38.4-38.4-19.44 0-35.507 14.446-38.049 33.189l-0.351 5.211v716.8c0 21.208 17.192 38.4 38.4 38.4z" />
<glyph unicode="&#xe902;" glyph-name="alert-circle" d="M534.4 278.287c-8.22 0-16.251-2.437-23.084-6.991-6.874-4.598-12.204-11.091-15.352-18.693-3.146-7.6-3.97-15.962-2.366-24.029 1.606-8.072 5.565-15.476 11.374-21.292 5.841-5.83 13.235-9.78 21.282-11.39 8.108-1.605 16.458-0.786 24.052 2.354 7.629 3.172 14.108 8.489 18.674 15.314 4.582 6.874 7.019 14.91 7.019 23.128 0 11.031-4.38 21.613-12.183 29.416s-18.385 12.183-29.417 12.183zM537.496 252.385c3.136-0.627 5.969-2.141 8.197-4.364 2.26-2.262 3.782-5.109 4.399-8.211 0.617-3.106 0.301-6.318-0.908-9.238-1.212-2.927-3.262-5.424-5.882-7.177-2.658-1.772-5.74-2.707-8.902-2.707-4.239 0-8.31 1.685-11.312 4.687s-4.687 7.073-4.687 11.313c0 3.163 0.934 6.242 2.681 8.864 1.778 2.657 4.263 4.697 7.162 5.902 2.968 1.228 6.17 1.542 9.253 0.931zM534.4 659.087c14.315 0 26.191-10.444 28.423-24.128l0.377-4.672v-256c0-15.906-12.894-28.8-28.8-28.8-14.315 0-26.191 10.444-28.423 24.128l-0.377 4.672v256c0 15.906 12.894 28.8 28.8 28.8zM534.4 863.887c-116.271 0-227.78-46.188-309.995-128.405s-128.405-193.724-128.405-309.995c0-116.27 46.189-227.782 128.405-309.998 82.218-82.213 193.728-128.402 309.995-128.402s227.78 46.189 309.997 128.401c82.213 82.219 128.403 193.731 128.403 309.999s-46.189 227.777-128.401 309.995c-82.216 82.216-193.728 128.405-309.999 128.405zM534.4 806.287c100.994 0 197.855-40.121 269.269-111.534 71.411-71.415 111.531-168.274 111.531-269.266s-40.121-197.854-111.532-269.269c-71.414-71.41-168.277-111.531-269.268-111.531s-197.851 40.12-269.267 111.532c-71.413 71.413-111.533 168.274-111.533 269.268s40.12 197.852 111.534 269.266c71.414 71.414 168.272 111.534 269.266 111.534z" />
<glyph unicode="&#xe903;" glyph-name="alert-triangle" d="M483.2 195.087c-8.544 0-16.896-2.534-23.999-7.28s-12.642-11.492-15.912-19.388c-3.27-7.894-4.126-16.585-2.458-24.964s5.784-16.082 11.833-22.125c6.014-6.024 13.71-10.136 22.085-11.809 8.419-1.667 17.095-0.815 24.986 2.455 7.885 3.268 14.623 8.794 19.372 15.887 4.762 7.12 7.291 15.479 7.291 24.020 0 11.454-4.547 22.447-12.649 30.548-8.104 8.104-19.090 12.654-30.548 12.654zM485.983 166.016c2.827-0.565 5.395-1.937 7.418-3.963 1.992-1.99 3.367-4.561 3.923-7.355s0.271-5.688-0.819-8.319c-1.091-2.633-2.938-4.884-5.307-6.466-2.365-1.58-5.148-2.424-7.997-2.424-3.818 0-7.483 1.518-10.181 4.216-2.707 2.707-4.222 6.368-4.222 10.181 0 2.839 0.844 5.628 2.439 8.014 1.583 2.365 3.826 4.204 6.447 5.29 2.635 1.092 5.525 1.376 8.299 0.827zM483.2 598.287c14.315 0 26.191-10.444 28.423-24.128l0.377-4.672v-288c0-15.906-12.894-28.8-28.8-28.8-14.315 0-26.191 10.444-28.423 24.128l-0.377 4.672v288c0 15.906 12.894 28.8 28.8 28.8zM483.2 886.281c-18.345 0-36.324-5.142-51.895-14.842s-28.112-23.569-36.201-40.035l-363.767-741.048c-6.531-13.287-9.572-28.033-8.828-42.834s5.247-29.172 13.086-41.748c7.837-12.573 18.748-22.944 31.703-30.135 12.974-7.194 27.555-10.961 42.376-10.946h747.080c14.793-0.015 29.374 3.752 42.338 10.941 12.967 7.199 23.879 17.571 31.713 30.144 7.838 12.579 12.345 26.951 13.086 41.75 0.741 14.797-2.3 29.541-8.835 42.84l-363.756 741.031c-8.101 16.479-20.638 30.346-36.206 40.043-15.572 9.7-33.55 14.841-51.896 14.841zM483.2 828.681c7.58 0 15.008-2.124 21.443-6.132 6.431-4.006 11.612-9.736 14.96-16.548l363.754-741.027c2.226-4.531 3.26-9.541 3.008-14.566-0.251-5.017-1.782-9.897-4.445-14.171-2.659-4.268-6.368-7.793-10.774-10.239-4.389-2.434-9.336-3.707-14.361-3.707h-747.14c-5.053 0-10.001 1.273-14.403 3.714-4.394 2.439-8.102 5.964-10.764 10.235-2.659 4.267-4.189 9.146-4.441 14.171s0.78 10.032 3 14.549l363.77 741.055c3.338 6.796 8.52 12.526 14.953 16.534s13.861 6.132 21.44 6.132z" />
<glyph unicode="&#xe904;" glyph-name="arrow-down" d="M217.823 589.33c15.785 14.872 40.487 16.224 57.894 4.056l4.987-4.056 205.697-193.778 205.697 193.778c15.785 14.872 40.487 16.224 57.894 4.056l4.987-4.056c15.785-14.872 17.22-38.145 4.305-54.544l-4.305-4.698-237.137-223.418c-15.785-14.872-40.487-16.224-57.894-4.056l-4.987 4.056-237.137 223.418c-17.364 16.359-17.364 42.883 0 59.243z" />
<glyph unicode="&#xe905;" glyph-name="arrow-left" d="M653.33 742.177c14.872-15.785 16.224-40.487 4.056-57.894l-4.056-4.987-193.778-205.697 193.778-205.697c14.872-15.785 16.224-40.487 4.056-57.894l-4.056-4.987c-14.872-15.785-38.145-17.22-54.544-4.305l-4.698 4.305-223.418 237.137c-14.872 15.785-16.224 40.487-4.056 57.894l4.056 4.987 223.418 237.137c16.359 17.364 42.883 17.364 59.243 0z" />
<glyph unicode="&#xe906;" glyph-name="arrow-right" d="M370.67 153.823c-14.872 15.785-16.224 40.487-4.056 57.894l4.056 4.987 193.778 205.697-193.778 205.697c-14.872 15.785-16.224 40.487-4.056 57.894l4.056 4.987c14.872 15.785 38.145 17.22 54.544 4.305l4.698-4.305 223.418-237.137c14.872-15.785 16.224-40.487 4.056-57.894l-4.056-4.987-223.418-237.137c-16.359-17.364-42.883-17.364-59.243 0z" />
<glyph unicode="&#xe907;" glyph-name="arrow-up" d="M217.823 306.67c15.785-14.872 40.487-16.224 57.894-4.056l4.987 4.056 205.697 193.778 205.697-193.778c15.785-14.872 40.487-16.224 57.894-4.056l4.987 4.056c15.785 14.872 17.22 38.145 4.305 54.544l-4.305 4.698-237.137 223.418c-15.785 14.872-40.487 16.224-57.894 4.056l-4.987-4.056-237.137-223.418c-17.364-16.359-17.364-42.883 0-59.243z" />
<glyph unicode="&#xe908;" glyph-name="calendar" d="M841.6 823.131h-614.4c-72.53 0-131.328-58.798-131.328-131.328v-512c0-72.532 58.797-131.328 131.328-131.328h614.4c72.532 0 131.328 58.796 131.328 131.328v512c0 72.531-58.796 131.328-131.328 131.328zM227.2 765.275h614.4c40.578 0 73.472-32.894 73.472-73.472v-512c0-40.579-32.893-73.472-73.472-73.472h-614.4c-40.578 0-73.472 32.893-73.472 73.472v512c0 40.577 32.895 73.472 73.472 73.472zM944 592.091c15.976 0 28.928-12.952 28.928-28.928 0-14.379-10.491-26.307-24.236-28.549l-4.692-0.379h-819.2c-15.976 0-28.928 12.952-28.928 28.928 0 14.379 10.491 26.307 24.236 28.549l4.692 0.379h819.2zM332.875 905.050c14.379 0 26.307-10.491 28.549-24.236l0.379-4.692v-153.6c0-15.976-12.952-28.928-28.928-28.928-14.379 0-26.307 10.491-28.549 24.236l-0.379 4.692v153.6c0 15.976 12.952 28.928 28.928 28.928zM736.077 905.050c14.379 0 26.307-10.491 28.549-24.236l0.379-4.692v-153.6c0-15.976-12.952-28.928-28.928-28.928-14.379 0-26.307 10.491-28.549 24.236l-0.379 4.692v153.6c0 15.976 12.952 28.928 28.928 28.928z" />
<glyph unicode="&#xe909;" glyph-name="check-circle" d="M744.509 650.981c11.387 11.206 29.703 11.060 40.909-0.327 9.961-10.122 10.952-25.718 3.052-36.93l-3.379-3.98-312.155-307.2c-10.007-9.849-25.393-10.943-36.595-3.283l-3.986 3.283-148.645 146.284c-11.387 11.206-11.534 29.522-0.328 40.909 9.961 10.122 25.54 11.363 36.876 3.643l4.033-3.315 128.317-126.288 291.901 287.205zM534.4 937.6c-122.212 0-239.418-48.549-325.835-134.965s-134.965-203.623-134.965-325.835c0-122.21 48.548-239.415 134.965-325.835 86.418-86.417 203.625-134.966 325.835-134.966 122.211 0 239.418 48.55 325.834 134.966 86.418 86.418 134.966 203.624 134.966 325.836 0 122.214-48.548 239.42-134.966 325.836-86.414 86.416-203.62 134.964-325.834 134.964zM534.4 880c106.937 0 209.492-42.48 285.105-118.094 75.616-75.614 118.095-178.168 118.095-285.106 0-106.936-42.479-209.49-118.095-285.106-75.614-75.614-178.17-118.095-285.105-118.095-106.933 0-209.49 42.481-285.105 118.095-75.615 75.618-118.095 178.173-118.095 285.106 0 106.936 42.48 209.491 118.095 285.106s178.17 118.094 285.105 118.094z" />
<glyph unicode="&#xe90a;" glyph-name="check" d="M795.716 698.694c15.116 14.876 39.428 14.681 54.304-0.434 13.523-13.741 14.592-35.084 3.318-50.027l-3.752-4.277-390.194-384.003c-13.586-13.371-34.64-14.586-49.584-3.646l-4.286 3.647-185.807 182.861c-15.115 14.876-15.31 39.189-0.434 54.304 13.523 13.741 34.846 15.151 49.968 4.117l4.336-3.684 158.87-156.314 363.261 357.456z" />
<glyph unicode="&#xe90b;" glyph-name="combo" d="M511.354 926.076c9.541 12.726 27.592 15.309 40.319 5.768 11.312-8.481 14.61-23.686 8.502-35.898l-2.734-4.42-23.857-31.82c-5.011-6.554-7.299-14.789-6.387-22.989s4.952-15.731 11.281-21.026c17.706-14.813 29.013-35.887 31.571-58.842 2.231-20.079-2.394-40.235-12.87-57.102l-4.845-7.018-23.693-31.603c-9.541-12.726-27.592-15.309-40.319-5.768-11.312 8.481-14.61 23.686-8.502 35.898l2.734 4.42 23.858 31.821c5.011 6.554 7.3 14.79 6.39 22.98-0.915 8.207-4.957 15.74-11.284 21.034-17.709 14.815-29.018 35.893-31.569 58.84-2.233 20.080 2.391 40.236 12.867 57.103l4.845 7.018 23.693 31.603zM273.566 782.093c9.551 12.719 27.604 15.287 40.323 5.736 11.306-8.49 14.591-23.697 8.474-35.905l-2.737-4.418-23.875-31.793c-5.009-6.557-7.293-14.793-6.378-22.994s4.96-15.73 11.315-21.041c17.694-14.82 28.991-35.893 31.541-58.831 2.231-20.072-2.385-40.22-12.855-57.097l-4.843-7.023-23.693-31.603c-9.541-12.726-27.592-15.309-40.319-5.768-11.312 8.481-14.61 23.686-8.502 35.898l2.734 4.42 23.846 31.806c5.009 6.56 7.295 14.799 6.383 23.002s-4.952 15.738-11.254 21.017c-17.718 14.807-29.038 35.881-31.599 58.829-2.242 20.080 2.374 40.239 12.857 57.131l4.849 7.029 23.731 31.603zM733.584 787.844c11.313 8.48 26.833 7.381 36.842-1.906l3.476-3.864 23.525-31.384c14.025-18.342 20.43-41.39 17.88-64.337-2.55-22.95-13.86-44.029-31.57-58.841-6.33-5.297-10.375-12.832-11.291-21.030-0.732-6.566 0.583-13.152 3.771-18.974l2.74-4.211 23.731-31.603c9.551-12.719 6.983-30.772-5.736-40.323-11.306-8.49-26.826-7.404-36.844 1.875l-3.48 3.861-23.594 31.423c-14.005 18.349-20.391 41.392-17.832 64.343 2.564 22.938 13.872 44.005 31.577 58.819 6.329 5.293 10.369 12.823 11.28 21.022 0.729 6.56-0.59 13.142-3.798 18.981l-2.757 4.227-23.69 31.603c-9.54 12.727-6.957 30.778 5.77 40.319zM966.4 246.4c15.906 0 28.8-12.894 28.8-28.8 0-14.315-10.444-26.191-24.128-28.423l-4.672-0.377h-864c-15.906 0-28.8 12.894-28.8 28.8 0 14.315 10.444 26.191 24.128 28.423l4.672 0.377h864zM534.005 447.997c40 0.543 79.468-9.219 114.598-28.347 27.329-14.882 51.317-35.041 70.623-59.217l1.159-1.522 4.311 1.407c9.715 2.825 19.727 4.638 29.891 5.401l10.209 0.411c70.185 0 132.118-58.981 159.368-139.276 5.112-15.062-2.955-31.416-18.017-36.528s-31.416 2.955-36.528 18.017c-20.101 59.23-63.108 100.187-104.661 100.187-14.372-0.081-28.503-3.669-41.169-10.453-13.352-7.152-29.962-2.739-38.004 10.096-15.989 25.518-38.28 46.487-64.728 60.889-26.444 14.398-56.157 21.748-87.052 21.339-30.112 0.409-59.824-6.94-86.269-21.337-26.449-14.404-48.74-35.373-64.731-60.891-8.043-12.835-24.653-17.247-38.005-10.094-12.662 6.783-26.793 10.371-41.005 10.451-41.729 0-84.725-40.939-104.823-100.183-5.11-15.063-21.463-23.131-36.525-18.022s-23.131 21.463-18.022 36.525c27.245 80.314 89.174 139.279 159.532 139.279 13.573-0.077 27.017-2.046 39.953-5.812l4.254-1.407 1.202 1.522c16.549 20.722 36.536 38.492 59.12 52.52l11.504 6.698c35.132 19.127 74.597 28.889 113.814 28.345zM908.8 246.4h-748.8c-24.049 0-37.505-27.732-22.623-46.623l115.93-147.149c10.295-12.249 22.451-21.453 36.165-27.658 13.704-6.207 28.635-9.273 43.687-8.965l403.071-0.006c14.463-0.302 29.395 2.764 43.11 8.976 13.7 6.198 25.853 15.401 35.557 26.918l116.525 147.883c14.883 18.891 1.426 46.623-22.623 46.623zM219.341 188.826h630.067l-79.158-100.552c-3.572-4.216-8.79-8.166-14.665-10.825-5.899-2.672-12.307-3.988-18.766-3.855l-404.25 0.006c-7.047-0.138-13.455 1.177-19.343 3.844l-5.649 3.081c-3.598 2.326-6.842 5.18-9.619 8.478l-78.617 99.822z" />
<glyph unicode="&#xe90c;" glyph-name="communication" horiz-adv-x="1075" d="M537.6 883.2c17.673 0 32-14.327 32-32 0-16.066-11.84-29.367-27.271-31.653l-4.729-0.347h-125.453c-19.347 0-37.901-7.686-51.581-21.366-11.97-11.97-19.351-27.672-21.009-44.371l-0.357-7.21v-596.544c0-9.575 1.887-19.059 5.551-27.906 3.666-8.846 9.039-16.885 15.813-23.658 6.772-6.77 14.811-12.139 23.669-15.804 6.625-2.744 13.616-4.489 20.746-5.19l7.167-0.351h250.908c9.593 0 19.076 1.882 27.922 5.546 8.845 3.66 16.882 9.028 23.655 15.796 6.775 6.775 12.151 14.817 15.816 23.655 2.749 6.638 4.498 13.633 5.2 20.755l0.352 7.157v211.891c0 17.673 14.327 32 32 32 16.066 0 29.367-11.84 31.653-27.271l0.347-4.729v-211.891c0-17.981-3.541-35.786-10.428-52.415-6.887-16.606-16.973-31.695-29.691-44.412-12.723-12.716-27.819-22.799-44.425-29.669-13.285-5.502-27.337-8.865-41.637-9.99l-10.763-0.423h-250.908c-17.992 0-35.798 3.535-52.394 10.408-16.618 6.876-31.718 16.96-44.438 29.677-12.717 12.714-22.805 27.807-29.69 44.421-5.506 13.292-8.875 27.347-10.002 41.643l-0.423 10.759v596.544c0 36.321 14.428 71.154 40.111 96.836 23.348 23.348 54.258 37.395 86.973 39.756l9.863 0.355h125.453zM768 249.6c17.673 0 32-14.327 32-32 0-16.066-11.84-29.367-27.271-31.653l-4.729-0.347h-460.8c-17.673 0-32 14.327-32 32 0 16.066 11.84 29.367 27.271 31.653l4.729 0.347h460.8zM589.646 560.385l5.554-0.385 408.754 0.385c35.262 5.049 35.262 58.182 0 63.231l-5.554 0.385c-6.79 0-13.3 2.697-18.104 7.499-4.8 4.799-7.496 11.31-7.496 18.101v115.2c0 46.68-18.543 91.446-51.552 124.452-33.002 33.004-77.77 51.548-124.448 51.548s-91.446-18.544-124.45-51.55c-33.007-33.004-51.55-77.77-51.55-124.45v-115.2c0-6.79-2.697-13.301-7.498-18.103-3.84-3.84-8.776-6.334-14.073-7.178l-4.029-0.319c-40.727 0-42.579-58.314-5.554-63.615zM796.8 876.8c29.704 0 58.192-11.8 79.193-32.803 21.007-21.005 32.807-49.492 32.807-79.197v-115.2l0.438-8.856c0.291-2.93 0.725-5.836 1.299-8.706l2-8.012h-231.526l2.051 8.013c1.148 5.741 1.738 11.621 1.738 17.562v115.2c0 29.705 11.8 58.192 32.805 79.195 21.003 21.005 49.492 32.805 79.195 32.805zM796.8 537.6c-9.172 0-18.138-2.719-25.766-7.81-7.658-5.122-13.612-12.379-17.117-20.876-3.497-8.437-4.418-17.779-2.617-26.792 1.773-8.955 6.193-17.229 12.681-23.723 6.511-6.501 14.767-10.914 23.755-12.706 9.032-1.787 18.347-0.871 26.819 2.638 8.469 3.508 15.704 9.443 20.804 17.054 5.126 7.672 7.839 16.643 7.839 25.815 0 12.3-4.883 24.099-13.578 32.8-8.721 8.713-20.516 13.599-32.82 13.599zM800.198 508.468c3.452-0.688 6.577-2.358 9.028-4.806 2.486-2.488 4.165-5.63 4.843-9.058 0.674-3.376 0.324-6.926-1.010-10.146-1.317-3.192-3.578-5.949-6.472-7.884-2.913-1.944-6.309-2.974-9.788-2.974-4.666 0-9.139 1.853-12.433 5.144-3.318 3.321-5.17 7.794-5.17 12.456 0 3.467 1.030 6.872 2.97 9.776 1.949 2.908 4.687 5.154 7.896 6.484 3.215 1.332 6.744 1.679 10.135 1.008z" />
<glyph unicode="&#xe90d;" glyph-name="credit-card" d="M880 771.163h-691.2c-63.623 0-115.2-51.577-115.2-115.2v-460.8c0-63.622 51.577-115.2 115.2-115.2h691.2c63.622 0 115.2 51.578 115.2 115.2v460.8c0 63.623-51.578 115.2-115.2 115.2zM188.8 694.363h691.2c21.207 0 38.4-17.193 38.4-38.4v-460.8c0-21.206-17.194-38.4-38.4-38.4h-691.2c-21.207 0-38.4 17.193-38.4 38.4v460.8c0 21.208 17.192 38.4 38.4 38.4zM956.8 540.763c21.208 0 38.4-17.192 38.4-38.4 0-19.44-14.446-35.507-33.189-38.049l-5.211-0.351h-844.8c-21.208 0-38.4 17.192-38.4 38.4 0 19.44 14.446 35.507 33.189 38.049l5.211 0.351h844.8zM380.8 412.763c21.208 0 38.4-17.192 38.4-38.4 0-19.44-14.446-35.507-33.189-38.049l-5.211-0.351h-153.6c-21.208 0-38.4 17.192-38.4 38.4 0 19.44 14.446 35.507 33.189 38.049l5.211 0.351h153.6z" />
<glyph unicode="&#xe90e;" glyph-name="customer-health" d="M495.008 886.364c206.421 0 300.527-96.941 401.868-350.714l18.653-48.211 37.408-98.789c3.347-8.721 4.524-18.132 3.426-27.436-1.104-9.272-4.434-18.136-9.73-25.849-5.289-7.693-12.362-13.99-20.61-18.338-6.2-3.273-12.929-5.379-19.863-6.232l-6.991-0.432-44.129 0.012 0.005-86.412c0-34.719-12.537-68.146-35.105-94.224l-7.069-7.597c-24.547-24.553-57.049-39.322-91.454-41.805l-10.372-0.374-28.805 0.012 0.005-86.412c0-14.315-10.444-26.191-24.128-28.423l-4.672-0.376c-14.315 0-26.191 10.443-28.423 24.127l-0.377 4.672v115.2c0 14.315 10.444 26.191 24.128 28.423l4.672 0.377h57.6c22.92 0 44.894 9.101 61.095 25.305 14.178 14.178 22.919 32.775 24.883 52.555l0.423 8.54v115.2c0 14.315 10.444 26.191 24.128 28.423l4.672 0.377 72.907 0.014-42.814 113.123-12.804 32.839-12.629 30.945c-87.941 210.077-167.669 283.879-335.926 283.879-66.534 0.068-131.543-19.928-186.537-57.377s-97.419-90.61-121.734-152.542c-24.315-61.932-29.391-129.756-14.564-194.615 14.826-64.862 48.864-123.742 97.675-168.966 4.706-4.36 7.788-10.132 8.832-16.373l0.395-4.753v-240.573c0-15.906-12.894-28.799-28.8-28.799-14.315 0-26.191 10.443-28.423 24.127l-0.377 4.672-0.006 228.338-1.996 1.939c-47.643 47.835-81.998 107.263-99.671 172.418l-3.781 15.135c-17.409 76.152-11.449 155.786 17.099 228.501s78.36 135.132 142.929 179.102c64.57 43.969 140.898 67.446 218.987 67.368zM567.050 713.563h-115.2c-15.277 0-29.927-6.068-40.729-16.871l-4.336-4.856c-8.076-10.145-12.535-22.78-12.535-35.874l-0.010-57.588-57.628-0.012c-15.302-0.021-29.933-6.098-40.718-16.898s-16.843-25.44-16.843-40.702v-115.2c0-15.28 6.071-29.936 16.879-40.736l4.852-4.333c10.139-8.071 22.774-12.532 35.869-12.532l57.59 0.012 0.010-57.612c0-15.28 6.071-29.936 16.879-40.736 10.792-10.793 25.443-16.864 40.721-16.864h115.2c15.281 0 29.938 6.073 40.737 16.883l4.332 4.848c8.070 10.132 12.532 22.772 12.532 35.87l-0.010 57.612 57.61-0.012c15.281 0 29.938 6.073 40.737 16.883 10.79 10.78 16.863 25.436 16.863 40.717v115.2c0 15.277-6.071 29.928-16.874 40.73l-4.851 4.335c-10.138 8.075-22.777 12.535-35.875 12.535l-57.61 0.012 0.010 57.588c0 15.277-6.071 29.928-16.874 40.73-10.789 10.799-25.446 16.87-40.726 16.87zM451.85 655.963h115.2v-86.4c0-15.906 12.894-28.8 28.8-28.8h86.4v-115.2h-86.4c-15.906 0-28.8-12.894-28.8-28.8v-86.4h-115.2v86.4c0 15.906-12.894 28.8-28.8 28.8h-86.4v115.2h86.4c15.906 0 28.8 12.894 28.8 28.8v86.4z" />
<glyph unicode="&#xe90f;" glyph-name="customers" d="M361.6 774.4c-50.497 0-98.926-20.060-134.633-55.767s-55.767-84.136-55.767-134.633c0-50.497 20.060-98.926 55.767-134.633s84.136-55.767 134.633-55.767c50.497 0 98.926 20.060 134.633 55.767s55.767 84.136 55.767 134.633c0 50.497-20.060 98.926-55.767 134.633s-84.136 55.767-134.633 55.767zM361.6 710.4c33.523 0 65.674-13.317 89.378-37.022s37.022-55.855 37.022-89.378c0-33.523-13.317-65.674-37.022-89.378s-55.855-37.022-89.378-37.022c-33.523 0-65.674 13.317-89.378 37.022s-37.022 55.855-37.022 89.378c0 33.523 13.317 65.674 37.022 89.378s55.855 37.022 89.378 37.022zM361.6 400c77.231 0 151.299-30.681 205.908-85.292 54.612-54.612 85.292-128.677 85.292-205.908 0-17.673-14.327-32-32-32s-32 14.327-32 32c0 60.257-23.937 118.044-66.547 160.654-42.607 42.608-100.397 66.546-160.653 66.546s-118.046-23.938-160.655-66.547c-42.609-42.609-66.545-100.395-66.545-160.653 0-17.673-14.327-32-32-32s-32 14.327-32 32c0 77.232 30.679 151.297 85.29 205.908s128.679 85.292 205.91 85.292zM754.314 659.2c-42.862 0-83.964-17.025-114.271-47.332-30.306-30.306-47.332-71.409-47.332-114.268s17.026-83.962 47.333-114.268c30.306-30.306 71.409-47.332 114.27-47.332 42.857 0 83.959 17.026 114.265 47.332s47.332 71.409 47.332 114.268c0 42.859-17.026 83.962-47.332 114.268s-71.407 47.332-114.265 47.332zM754.314 595.2c25.883 0 50.707-10.282 69.010-28.586s28.587-43.129 28.587-69.014c0-25.885-10.283-50.709-28.587-69.013s-43.128-28.587-69.011-28.587c-25.887 0-50.711 10.283-69.015 28.587s-28.587 43.128-28.587 69.013c0 25.885 10.283 50.709 28.587 69.013s43.127 28.587 69.015 28.587zM669.747 337.815c36.904 13.6 76.546 18.088 115.558 13.079 39.011-5.014 76.231-19.373 108.493-41.856 32.27-22.484 58.631-52.427 76.847-87.29 18.207-34.863 27.727-73.603 27.75-112.929 0.011-17.673-14.308-32.009-31.981-32.019s-32.009 14.308-32.019 31.981c-0.017 29.021-7.043 57.611-20.477 83.336-13.44 25.723-32.893 47.819-56.708 64.412-23.809 16.591-51.275 27.187-80.059 30.887-28.785 3.695-58.039 0.384-85.274-9.653-16.583-6.111-34.98 2.378-41.091 18.961s2.378 34.98 18.961 41.091z" />
<glyph unicode="&#xe910;" glyph-name="dashboard" d="M275.2 889.413c-26.894 0-53.526-5.297-78.374-15.59s-47.425-25.378-66.442-44.395c-19.017-19.017-34.103-41.594-44.395-66.442s-15.59-51.479-15.59-78.373c0-26.894 5.297-53.526 15.59-78.374s25.377-47.424 44.394-66.442c19.019-19.018 41.596-34.104 66.442-44.395 24.848-10.292 51.479-15.589 78.374-15.589s53.526 5.297 78.374 15.589c24.847 10.292 47.424 25.378 66.442 44.395s34.103 41.595 44.395 66.442c10.292 24.848 15.59 51.479 15.59 78.374s-5.297 53.526-15.59 78.373c-10.292 24.848-25.377 47.425-44.395 66.442s-41.594 34.103-66.442 44.395c-24.848 10.292-51.479 15.59-78.374 15.59zM275.2 825.413c18.49 0 36.799-3.642 53.882-10.718s32.604-17.447 45.679-30.522c13.074-13.074 23.445-28.596 30.521-45.679s10.718-35.392 10.718-53.882c0-18.49-3.642-36.799-10.718-53.882s-17.447-32.604-30.521-45.679c-13.074-13.074-28.597-23.446-45.679-30.521s-35.391-10.717-53.882-10.717c-18.491 0-36.8 3.642-53.882 10.717s-32.604 17.447-45.679 30.522c-13.074 13.074-23.445 28.596-30.521 45.679s-10.718 35.392-10.718 53.882c0 18.49 3.642 36.799 10.718 53.881s17.447 32.605 30.521 45.679c13.074 13.074 28.596 23.446 45.679 30.522s35.392 10.718 53.882 10.718zM275.2 371.011c-26.894 0-53.525-5.297-78.373-15.589s-47.425-25.377-66.443-44.395c-19.019-19.020-34.104-41.594-44.395-66.441-10.293-24.85-15.589-51.478-15.589-78.375 0-26.893 5.297-53.521 15.589-78.37 10.291-24.847 25.376-47.421 44.395-66.441 19.015-19.015 41.59-34.1 66.437-44.398 24.854-10.294 51.485-15.591 78.379-15.591s53.525 5.297 78.373 15.589c24.853 10.3 47.428 25.385 66.443 44.4 19.019 19.020 34.104 41.594 44.395 66.441 10.292 24.849 15.589 51.477 15.589 78.37 0 26.897-5.297 53.525-15.589 78.375-10.291 24.847-25.376 47.421-44.395 66.441-19.018 19.018-41.595 34.104-66.443 44.395s-51.479 15.589-78.373 15.589zM275.2 307.011c18.49 0 36.799-3.642 53.883-10.718 17.082-7.075 32.604-17.446 45.678-30.521 13.076-13.076 23.446-28.596 30.521-45.677 7.077-17.086 10.718-35.392 10.718-53.885 0-18.488-3.642-36.794-10.718-53.88-7.075-17.081-17.445-32.6-30.521-45.677-13.073-13.073-28.596-23.446-45.684-30.528-17.077-7.073-35.387-10.715-53.876-10.715s-36.799 3.642-53.883 10.718c-17.081 7.079-32.604 17.452-45.678 30.526-13.076 13.076-23.446 28.596-30.521 45.677-7.077 17.086-10.718 35.391-10.718 53.88 0 18.493 3.641 36.799 10.718 53.885 7.075 17.081 17.445 32.6 30.521 45.677 13.074 13.074 28.596 23.445 45.678 30.521 17.084 7.076 35.393 10.718 53.882 10.718zM793.6 889.413c-26.894 0-53.527-5.297-78.375-15.589-24.848-10.294-47.426-25.38-66.441-44.395-19.018-19.017-34.103-41.595-44.395-66.443s-15.589-51.478-15.589-78.372c0-26.894 5.297-53.525 15.589-78.373s25.377-47.425 44.395-66.443c19.016-19.015 41.594-34.102 66.439-44.394 24.851-10.293 51.483-15.59 78.378-15.59s53.527 5.297 78.375 15.589c24.847 10.294 47.425 25.38 66.441 44.395 19.018 19.018 34.104 41.595 44.395 66.443s15.589 51.479 15.589 78.373c0 26.894-5.297 53.525-15.589 78.373s-25.377 47.425-44.395 66.443c-19.015 19.015-41.593 34.101-66.438 44.394-24.851 10.293-51.484 15.59-78.378 15.59zM793.6 825.413c18.49 0 36.801-3.642 53.885-10.718 17.080-7.076 32.604-17.449 45.677-30.521 13.075-13.074 23.446-28.596 30.521-45.678s10.718-35.393 10.718-53.882c0-18.49-3.642-36.799-10.718-53.883-7.075-17.082-17.446-32.604-30.521-45.678-13.073-13.073-28.597-23.446-45.679-30.522s-35.392-10.717-53.882-10.717-36.801 3.642-53.885 10.718c-17.079 7.076-32.604 17.449-45.677 30.522-13.074 13.074-23.445 28.596-30.521 45.678-7.076 17.084-10.718 35.393-10.718 53.882s3.642 36.799 10.718 53.882c7.075 17.083 17.446 32.604 30.521 45.678 13.073 13.073 28.597 23.446 45.68 30.523 17.082 7.075 35.392 10.717 53.882 10.717zM793.6 371.011c-26.894 0-53.526-5.297-78.375-15.589-24.848-10.294-47.426-25.38-66.442-44.395-19.019-19.019-34.104-41.594-44.395-66.442-10.292-24.85-15.589-51.478-15.589-78.375 0-26.893 5.297-53.52 15.589-78.369 10.291-24.847 25.376-47.422 44.395-66.442 19.012-19.012 41.588-34.098 66.433-44.397 24.857-10.295 51.49-15.592 78.383-15.592s53.526 5.297 78.375 15.589c24.854 10.302 47.429 25.388 66.442 44.4 19.019 19.019 34.104 41.594 44.395 66.442 10.292 24.85 15.589 51.477 15.589 78.369 0 26.897-5.297 53.524-15.589 78.375-10.291 24.847-25.376 47.422-44.395 66.442-19.016 19.016-41.594 34.102-66.439 44.394-24.851 10.292-51.484 15.59-78.377 15.59zM793.6 307.011c18.49 0 36.801-3.642 53.885-10.718 17.080-7.075 32.603-17.448 45.676-30.521 13.077-13.077 23.447-28.596 30.521-45.676 7.077-17.087 10.718-35.393 10.718-53.885 0-18.488-3.642-36.794-10.718-53.88-7.074-17.081-17.444-32.6-30.521-45.676-13.072-13.072-28.597-23.446-45.685-30.529-17.076-7.072-35.387-10.714-53.877-10.714s-36.801 3.642-53.885 10.718c-17.079 7.079-32.604 17.454-45.676 30.526-13.077 13.077-23.447 28.596-30.521 45.676-7.076 17.086-10.718 35.392-10.718 53.88 0 18.493 3.641 36.799 10.718 53.885 7.074 17.081 17.444 32.6 30.521 45.676 13.073 13.073 28.596 23.445 45.679 30.522 17.082 7.075 35.393 10.717 53.883 10.717z" />
<glyph unicode="&#xe911;" glyph-name="delete" d="M793.6 684.763h-518.4c-15.906 0-28.8-12.894-28.8-28.8v-518.4c0-22.915 9.102-44.888 25.304-61.093 16.203-16.205 38.18-25.307 61.096-25.307h403.2c22.916 0 44.89 9.102 61.094 25.306s25.306 38.178 25.306 61.094v518.4c0 15.906-12.894 28.8-28.8 28.8zM303.974 627.188h460.8l0.026-489.626c0-7.64-3.033-14.963-8.435-20.365s-12.725-8.435-20.365-8.435h-403.2c-7.639 0-14.964 3.034-20.364 8.434l-2.952 3.459c-3.543 4.886-5.484 10.795-5.484 16.906l-0.026 489.626zM448 511.963c14.315 0 26.191-10.444 28.423-24.128l0.377-4.672v-230.4c0-15.906-12.894-28.8-28.8-28.8-14.315 0-26.191 10.444-28.423 24.128l-0.377 4.672v230.4c0 15.906 12.894 28.8 28.8 28.8zM620.8 511.963c14.315 0 26.191-10.444 28.423-24.128l0.377-4.672v-230.4c0-15.906-12.894-28.8-28.8-28.8-14.315 0-26.191 10.444-28.423 24.128l-0.377 4.672v230.4c0 15.906 12.894 28.8 28.8 28.8zM908.8 684.763c15.906 0 28.8-12.894 28.8-28.8 0-14.315-10.444-26.191-24.128-28.423l-4.672-0.377h-748.8c-15.906 0-28.8 12.894-28.8 28.8 0 14.315 10.444 26.191 24.128 28.423l4.672 0.377h748.8zM620.8 799.963h-172.8c-22.914 0-44.891-9.103-61.094-25.305-16.203-16.204-25.306-38.18-25.306-61.095v-57.6c0-15.906 12.894-28.8 28.8-28.8h288c15.906 0 28.8 12.894 28.8 28.8v57.6c0 22.916-9.102 44.892-25.307 61.095s-38.178 25.305-61.093 25.305zM448 742.363h172.8c7.639 0 14.963-3.034 20.366-8.437l2.951-3.458c3.541-4.884 5.483-10.794 5.483-16.906l-0.026-28.774h-230.4l0.026 28.774c0 7.638 3.034 14.964 8.436 20.365 5.4 5.4 12.726 8.435 20.364 8.435z" />
<glyph unicode="&#xe912;" glyph-name="discounts" d="M908.8 745.587h-748.8c-23.763 0-46.553-9.44-63.356-26.242-16.804-16.804-26.244-39.594-26.244-63.358v-115.2c0-17.673 14.327-32 32-32 22.066 0 43.228-8.766 58.831-24.369s24.369-36.765 24.369-58.831c0-22.065-8.766-43.227-24.37-58.833-15.603-15.601-36.766-24.367-58.83-24.367-17.673 0-32-14.327-32-32v-115.2c0-23.764 9.439-46.551 26.241-63.355 16.804-16.805 39.594-26.245 63.359-26.245h748.8c23.765 0 46.553 9.439 63.357 26.243s26.243 39.592 26.243 63.357v115.2c0 17.673-14.327 32-32 32-22.062 0-43.227 8.767-58.834 24.371-15.599 15.602-24.366 36.767-24.366 58.829 0 22.064 8.767 43.227 24.37 58.833 15.603 15.601 36.766 24.367 58.83 24.367 17.673 0 32 14.327 32 32v115.2c0 23.765-9.439 46.555-26.244 63.358s-39.592 26.242-63.356 26.242zM160 681.587h748.8c6.79 0 13.3-2.697 18.104-7.499l2.623-3.073c3.148-4.341 4.874-9.595 4.874-15.027v-86.733l-9.557-2.455c-23.41-6.89-44.96-19.558-62.528-37.125-27.605-27.609-43.114-65.050-43.114-104.087 0-39.035 15.509-76.476 43.111-104.084l7.768-7.227c15.999-13.843 34.7-23.995 54.765-29.901l9.555-2.404v-86.784c0-6.791-2.696-13.3-7.498-18.102s-11.311-7.498-18.102-7.498h-748.8c-6.791 0-13.301 2.697-18.101 7.497l-2.624 3.075c-3.149 4.343-4.875 9.596-4.875 15.028v86.784l9.557 2.404c23.41 6.89 44.96 19.558 62.528 37.124 27.607 27.61 43.116 65.050 43.116 104.088 0 39.040-15.508 76.481-43.114 104.086l-7.766 7.226c-15.996 13.842-34.695 23.994-54.761 29.9l-9.559 2.455v86.733c0 6.79 2.697 13.301 7.498 18.103 4.8 4.8 11.312 7.497 18.102 7.497zM390.4 630.387c-23.763 0-46.553-9.44-63.356-26.242-16.804-16.804-26.244-39.594-26.244-63.358s9.44-46.553 26.242-63.356c16.804-16.804 39.594-26.244 63.358-26.244s46.553 9.44 63.356 26.242c16.804 16.804 26.244 39.594 26.244 63.358s-9.44 46.553-26.242 63.356c-16.804 16.804-39.594 26.244-63.358 26.244zM390.4 566.387c6.79 0 13.301-2.697 18.103-7.498 4.8-4.8 7.497-11.312 7.497-18.102s-2.697-13.301-7.498-18.103c-4.8-4.8-11.312-7.497-18.102-7.497s-13.301 2.697-18.103 7.498c-4.8 4.8-7.497 11.312-7.497 18.102s2.697 13.301 7.498 18.103c4.8 4.8 11.312 7.497 18.102 7.497zM707.2 399.987c-23.765 0-46.553-9.439-63.357-26.243s-26.243-39.592-26.243-63.357c0-23.765 9.439-46.553 26.243-63.357s39.592-26.243 63.357-26.243c23.765 0 46.553 9.439 63.357 26.243s26.243 39.592 26.243 63.357c0 23.765-9.439 46.553-26.243 63.357s-39.592 26.243-63.357 26.243zM707.2 335.987c6.791 0 13.3-2.696 18.102-7.498s7.498-11.311 7.498-18.102c0-6.791-2.696-13.3-7.498-18.102s-11.311-7.498-18.102-7.498c-6.791 0-13.3 2.696-18.102 7.498s-7.498 11.311-7.498 18.102c0 6.791 2.696 13.3 7.498 18.102s11.311 7.498 18.102 7.498zM655.773 592.215c12.497 12.497 32.758 12.497 45.255 0 11.108-11.108 12.342-28.351 3.703-40.823l-3.703-4.432-288-288c-12.497-12.497-32.758-12.497-45.255 0-11.108 11.108-12.342 28.351-3.703 40.823l3.703 4.432 288 288z" />
<glyph unicode="&#xe913;" glyph-name="download" d="M534.436 771.163c14.315 0 26.191-10.444 28.423-24.128l0.377-4.672v-460.8c0-15.906-12.894-28.8-28.8-28.8-14.315 0-26.191 10.444-28.423 24.128l-0.377 4.672v460.8c0 15.906 12.894 28.8 28.8 28.8zM341.273 474.727c9.997 9.997 25.516 11.108 36.741 3.332l3.989-3.332 152.423-152.423 152.446 152.423c9.997 9.997 25.516 11.108 36.741 3.332l3.989-3.332c9.997-9.997 11.108-25.516 3.332-36.741l-3.332-3.989-172.8-172.8c-9.997-9.997-25.516-11.108-36.741-3.332l-3.989 3.333-172.798 172.8c-11.247 11.247-11.247 29.482 0 40.729zM966.436 310.363c14.315 0 26.191-10.444 28.423-24.128l0.377-4.672v-57.6c0-38.191-15.17-74.818-42.176-101.824-24.549-24.549-57.052-39.32-91.453-41.802l-10.371-0.374h-633.598c-38.188 0-74.815 15.172-101.825 42.177-24.549 24.552-39.319 57.054-41.802 91.452l-0.374 10.37v57.6c0 15.906 12.894 28.8 28.8 28.8 14.315 0 26.191-10.444 28.423-24.128l0.377-4.672v-57.6c0-22.913 9.103-44.89 25.305-61.093 14.18-14.178 32.779-22.92 52.557-24.884l8.539-0.423h633.598c22.915 0 44.893 9.104 61.095 25.305 14.178 14.178 22.919 32.775 24.883 52.555l0.423 8.54v57.6c0 15.906 12.894 28.8 28.8 28.8z" />
<glyph unicode="&#xe914;" glyph-name="edit-write" d="M880 713.6c-30.556 0-59.857-12.138-81.459-33.744l-366.566-366.563c-4.407-4.407-7.265-10.124-8.146-16.294l-20.352-142.541c-2.714-19.005 13.576-35.295 32.582-32.582l142.543 20.352c6.17 0.881 11.887 3.739 16.294 8.146l366.566 366.565c21.602 21.607 33.738 50.908 33.738 81.459s-12.136 59.852-33.736 81.457c-21.609 21.607-50.91 33.744-81.464 33.744zM880 656c15.278 0 29.929-6.068 40.733-16.872 10.798-10.8 16.867-25.453 16.867-40.729l-0.368-6.499c-1.463-12.885-7.244-24.973-16.502-34.233l-359.783-359.728-95.027-13.568 13.568 95.027 359.785 359.731c10.801 10.803 25.449 16.871 40.727 16.871zM563.2 886.4h-288c-15.906 0-28.8-12.894-28.8-28.8v-115.2c0-15.906 12.894-28.8 28.8-28.8h288c15.906 0 28.8 12.894 28.8 28.8v115.2c0 15.906-12.894 28.8-28.8 28.8zM534.374 828.826v-57.6h-230.4v57.6h230.4zM678.4 828.8c22.915 0 44.889-9.102 61.093-25.305s25.307-38.179 25.307-61.095c0-15.906-12.894-28.8-28.8-28.8-14.315 0-26.191 10.444-28.423 24.128l-0.377 4.672c0 7.639-3.034 14.964-8.434 20.364-4.322 4.322-9.874 7.128-15.833 8.077l-4.533 0.359h-115.2c-15.906 0-28.8 12.894-28.8 28.8 0 14.315 10.444 26.191 24.128 28.423l4.672 0.377h115.2zM275.2 828.8c15.906 0 28.8-12.894 28.8-28.8 0-14.315-10.444-26.191-24.128-28.423l-4.672-0.377h-115.2c-7.639 0-14.964-3.034-20.364-8.435-4.321-4.321-7.127-9.874-8.077-15.833l-0.359-4.533v-691.202c0-7.636 3.035-14.964 8.431-20.361 4.324-4.322 9.879-7.13 15.837-8.080l4.531-0.359h518.4c7.636 0 14.963 3.035 20.365 8.435 4.32 4.32 7.127 9.874 8.076 15.833l0.359 4.532v115.2c0 15.906 12.894 28.8 28.8 28.8 14.315 0 26.191-10.444 28.423-24.128l0.377-4.672v-115.2c0-22.913-9.103-44.891-25.311-61.099-14.18-14.173-32.775-22.914-52.551-24.878l-8.538-0.423h-518.4c-22.911 0-44.886 9.104-61.096 25.307-14.176 14.178-22.918 32.777-24.881 52.554l-0.423 8.539v691.202c0 22.914 9.103 44.891 25.306 61.094 14.178 14.178 32.776 22.919 52.555 24.883l8.54 0.423h115.2zM563.2 598.4c15.906 0 28.8-12.894 28.8-28.8 0-14.315-10.444-26.191-24.128-28.423l-4.672-0.377h-288c-15.906 0-28.8 12.894-28.8 28.8 0 14.315 10.444 26.191 24.128 28.423l4.672 0.377h288zM390.4 425.598c15.906 0 28.8-12.894 28.8-28.8 0-14.315-10.444-26.191-24.128-28.423l-4.672-0.377h-115.2c-15.906 0-28.8 12.894-28.8 28.8 0 14.315 10.444 26.191 24.128 28.423l4.672 0.377h115.2z" />
<glyph unicode="&#xe915;" glyph-name="edit" d="M825.963 886.378c-22.275-0.158-44.281-4.718-64.774-13.424-20.494-8.709-39.056-21.389-54.617-37.31l-556.568-556.567c-3.65-3.65-6.252-8.213-7.533-13.213l-67.968-265.149c-5.437-21.209 13.845-40.488 35.053-35.048l265.152 68.004c4.999 1.282 9.561 3.883 13.21 7.532l556.803 556.802c15.689 15.327 28.376 33.888 37.081 54.371 8.706 20.486 13.27 42.494 13.431 64.754 0.141 22.287-4.124 44.358-12.557 64.956-8.428 20.601-20.861 39.332-36.579 55.103-15.857 15.789-34.587 28.216-55.192 36.644-20.603 8.427-42.677 12.69-64.94 12.547zM826.343 828.778c14.659 0.094 29.192-2.712 42.754-8.259s25.891-13.727 36.278-24.070c10.263-10.299 18.444-22.622 23.991-36.182 5.551-13.559 8.358-28.086 8.265-42.748-0.106-14.639-3.111-29.129-8.843-42.616l-3.747-7.928c-5.405-10.354-12.427-19.812-20.815-28.008l-551.459-551.415-210.432-53.965 53.965 210.381 551.232 551.181c10.474 10.714 22.693 19.060 36.18 24.792 10.792 4.585 22.223 7.423 33.871 8.427l8.759 0.41zM690.911 819.94c9.997 9.997 25.516 11.108 36.741 3.332l3.989-3.332 197.146-197.146c11.247-11.247 11.247-29.482 0-40.729-9.997-9.997-25.516-11.108-36.741-3.332l-3.989 3.332-197.146 197.146c-11.247 11.247-11.247 29.482 0 40.729zM150.030 279.095c9.989 10.006 25.507 11.131 36.738 3.365l3.992-3.329 197.338-196.992c11.257-11.237 11.273-29.472 0.036-40.729-9.989-10.006-25.507-11.131-36.738-3.365l-3.992 3.329-197.338 196.992c-11.257 11.237-11.273 29.472-0.036 40.729z" />
<glyph unicode="&#xe916;" glyph-name="eye-off" d="M880.369 792.068c11.525 11.064 29.838 10.69 40.902-0.835 9.835-10.245 10.632-25.852 2.594-36.965l-3.428-3.937-720.002-691.2c-11.525-11.064-29.838-10.69-40.902 0.835-9.835 10.245-10.632 25.852-2.594 36.965l3.428 3.937 720.002 691.2zM808.567 562.465c9.42 12.904 27.517 15.729 40.421 6.31 44.366-32.385 85.361-69.153 122.482-109.876 15.347-17.042 23.842-39.164 23.842-62.098 0-22.936-8.496-45.062-23.928-62.192-122.289-134.585-287.379-228.458-436.838-225.937-42.499-0.314-84.79 5.941-125.375 18.545-15.258 4.738-23.786 20.948-19.048 36.206s20.948 23.786 36.206 19.048c34.893-10.835 71.252-16.213 108.49-15.947 130.765-2.199 281.595 83.566 393.663 206.902 5.776 6.411 8.974 14.742 8.974 23.376s-3.198 16.963-8.86 23.251c-34.389 37.725-72.487 71.894-113.719 101.992-12.904 9.42-15.729 27.517-6.31 40.421zM534.013 684.925c33.685 0.378 67.282-3.549 99.968-11.683 15.504-3.858 24.944-19.554 21.085-35.058s-19.554-24.944-35.058-21.085c-27.904 6.945-56.588 10.297-86.152 9.976-129.679 2.155-281.313-83.363-393.551-206.82-5.779-6.416-8.977-14.744-8.977-23.379s3.198-16.964 8.841-23.23c29.496-32.289 61.687-62.005 96.224-88.822 12.619-9.799 14.905-27.971 5.107-40.59s-27.971-14.905-40.59-5.107c-37.132 28.833-71.743 60.782-103.593 95.649-15.35 17.043-23.844 39.165-23.844 62.1s8.494 45.058 23.934 62.199c122.478 134.721 288.448 228.325 436.606 225.851zM534.345 569.728c15.976-0.004 28.924-12.959 28.92-28.936s-12.959-28.924-28.936-28.92c-15.112 0.004-30.076-2.969-44.038-8.751-13.961-5.78-26.647-14.256-37.333-24.941-10.686-10.687-19.162-23.373-24.942-37.335s-8.755-28.926-8.751-44.037c0.004-15.976-12.944-28.932-28.92-28.936s-28.932 12.944-28.936 28.92c-0.006 22.712 4.463 45.203 13.151 66.186s21.426 40.051 37.487 56.112c16.061 16.060 35.127 28.798 56.11 37.486s43.475 13.158 66.187 13.152zM678.33 425.765c15.976 0.004 28.932-12.944 28.936-28.92 0.006-22.712-4.463-45.205-13.152-66.192s-21.422-40.052-37.484-56.12c-16.060-16.060-35.125-28.803-56.11-37.5-20.987-8.688-43.475-13.162-66.182-13.162-15.976 0-28.928 12.952-28.928 28.928s12.952 28.928 28.928 28.928c15.111 0 30.079 2.978 44.042 8.758 13.958 5.785 26.649 14.267 37.336 24.954 10.687 10.691 19.161 23.378 24.943 37.344s8.756 28.933 8.752 44.045c-0.004 15.976 12.944 28.932 28.92 28.936z" />
<glyph unicode="&#xe917;" glyph-name="eye" d="M548.514 700.163l-13.744 0.076c-141.782 2.392-299.558-86.559-415.884-214.602-14.885-16.525-23.077-37.859-23.077-59.976s8.192-43.452 22.994-59.885c116.19-127.972 273.078-217.205 415.965-214.804 141.906-2.401 298.811 86.817 415.019 214.711 14.886 16.529 23.078 37.864 23.078 59.978s-8.192 43.448-22.992 59.882c-112.563 123.758-263.487 210.909-401.359 214.62zM533.795 642.392h0.976c122.477 2.066 265.872-78.761 372.207-195.671 5.136-5.704 8.032-13.245 8.032-21.059s-2.896-15.357-8.128-21.166c-105.983-116.641-248.628-197.75-372.113-195.675-124.46-2.075-267.080 79.042-373.054 195.762-5.154 5.722-8.050 13.264-8.050 21.079s2.895 15.355 8.126 21.163c106.089 116.775 249.512 197.633 372.003 195.567zM534.337 556.925c-25.972 0-51.362-7.701-72.958-22.13s-38.429-34.938-48.37-58.933c-9.941-23.995-12.544-50.399-7.479-75.872 5.064-25.476 17.569-48.879 35.933-67.246 18.361-18.364 41.756-30.873 67.227-35.949 25.481-5.071 51.882-2.476 75.88 7.458s44.513 26.763 58.947 48.355c14.433 21.591 22.142 46.982 22.148 72.953 0.007 17.245-3.382 34.327-9.973 50.263-6.602 15.947-16.274 30.429-28.467 42.628-12.205 12.205-26.684 21.88-42.62 28.48-12.75 5.281-26.235 8.51-39.952 9.588l-10.316 0.404zM534.345 499.069c9.651 0.003 19.209-1.897 28.122-5.588s17.015-9.105 23.844-15.933c6.817-6.82 12.229-14.924 15.922-23.844 3.684-8.907 5.581-18.467 5.577-28.123-0.004-14.533-4.317-28.74-12.391-40.818-8.075-12.080-19.552-21.494-32.977-27.052s-28.197-7.010-42.452-4.173c-14.248 2.839-27.34 9.839-37.612 20.114s-17.268 23.366-20.101 37.621c-2.833 14.25-1.377 29.022 4.184 42.446s14.979 24.898 27.061 32.97c9.665 6.458 20.689 10.507 32.152 11.868l8.672 0.513z" />
<glyph unicode="&#xe918;" glyph-name="feedback" d="M793.6 886.4h-518.4c-22.914 0-44.891-9.103-61.094-25.305-16.203-16.204-25.306-38.18-25.306-61.095v-777.6c0.024-10.674 2.978-21.074 8.537-30.113 5.56-9.040 13.506-16.362 22.964-21.172 9.481-4.812 20.083-6.91 30.659-6.070s20.718 4.585 29.302 10.821l237.208 172.501c4.921 3.578 10.847 5.505 16.93 5.505s12.011-1.927 16.928-5.504l237.202-172.495c8.59-6.243 18.73-9.99 29.308-10.829s21.171 1.257 30.632 6.054c9.491 4.827 17.435 12.151 22.993 21.189 5.56 9.041 8.517 19.445 8.538 30.058v777.656c0 22.916-9.102 44.892-25.307 61.095s-38.178 25.305-61.093 25.305zM275.2 828.8h518.4c7.639 0 14.963-3.034 20.366-8.437 5.4-5.399 8.434-12.724 8.434-20.363v-777.537l-237.193 172.488c-14.761 10.737-32.55 16.521-50.807 16.521-18.255 0-36.041-5.783-50.807-16.52l-237.193-172.488v777.537c0 7.638 3.034 14.964 8.436 20.365 5.4 5.4 12.726 8.435 20.364 8.435zM534.397 705.337c-9.543 0-18.899-2.645-27.028-7.643l-4.685-3.25c-5.985-4.661-10.888-10.602-14.335-17.413l-39.939-78.401-64.003-0.037c-9.588 0.242-19.715-2.617-28.354-8.213-8.638-5.594-15.389-13.668-19.367-23.162-3.973-9.503-4.999-19.972-2.929-30.053l1.595-5.936c2.592-7.752 7.016-14.801 12.933-20.529l60.699-59.731-33.627-77.309c-4.32-10.294-5.258-21.291-2.838-31.79 2.424-10.499 8.078-19.967 16.166-27.075 8.095-7.113 18.217-11.501 28.939-12.549l6.43-0.224c8.549 0.238 16.941 2.609 24.394 6.939l85.926 48.362 86.29-48.698c8.993-5.23 19.776-7.58 30.504-6.533 10.722 1.048 20.837 5.434 28.93 12.54 8.1 7.121 13.753 16.587 16.173 27.074l1.051 6.352c0.866 8.515-0.404 17.146-3.74 25.095l-33.821 77.661 60.915 59.897c7.224 6.994 12.285 16.213 14.357 26.289 2.075 10.086 1.048 20.561-2.924 30.055-3.99 9.507-10.735 17.574-19.369 23.168l-5.351 3.027c-7.344 3.59-15.473 5.38-23.708 5.179l-63.345 0.045-39.917 78.598c-4.271 8.46-10.866 15.623-19.006 20.624-8.111 4.992-17.474 7.639-27.019 7.639zM534.374 640.512l42.662-83.919 2.4-3.916c5.365-7.364 13.983-11.837 23.275-11.837l66.422 0.037-63.854-62.914-3.269-3.833c-5.785-8.13-7.015-18.822-2.936-28.191l34.014-78.168-84.542 47.664-4.53 2.062c-7.761 2.75-16.423 2.069-23.738-2.046l-84.617-47.527 34.057 78.168 1.601 4.777c2.33 9.702-0.522 20.080-7.805 27.247l-63.898 62.915 66.468-0.037c10.835 0 20.752 6.081 25.667 15.736l42.624 83.782z" />
<glyph unicode="&#xe919;" glyph-name="filter" d="M862.080 659.215c15.976 0 28.928-12.952 28.928-28.928 0-14.379-10.491-26.307-24.236-28.549l-4.692-0.379h-737.28c-15.976 0-28.928 12.952-28.928 28.928 0 14.379 10.491 26.307 24.236 28.549l4.692 0.379h737.28zM796.847 448c12.345 0 22.353-11.462 22.353-25.6 0-12.725-8.106-23.281-18.727-25.265l-3.626-0.335h-569.695c-12.345 0-22.353 11.462-22.353 25.6 0 12.725 8.106 23.281 18.727 25.265l3.626 0.335h569.695zM701.898 243.2c8.23 0 14.902-11.462 14.902-25.6 0-12.725-5.404-23.281-12.485-25.265l-2.417-0.335h-379.797c-8.23 0-14.902 11.462-14.902 25.6 0 12.725 5.404 23.281 12.485 25.265l2.417 0.335h379.797z" />
<glyph unicode="&#xe91a;" glyph-name="gardener" d="M579.776 796.46c4.386 17.12 21.82 27.444 38.94 23.058 72.659-18.613 138.121-58.467 188.019-114.468s81.962-125.608 92.1-199.926c10.143-74.314-2.107-149.971-35.18-217.298-28.35-57.702-70.893-107.036-123.412-143.503l-11.052-7.26 0.026-143.421c0-16.066-11.84-29.367-27.271-31.653l-4.729-0.347c-16.066 0-29.367 11.84-31.653 27.271l-0.347 4.729v161.28c0 11.451 6.119 22.030 16.045 27.739 53.985 31.050 97.488 77.491 124.951 133.386 27.461 55.901 37.632 118.72 29.21 180.425-8.418 61.71-35.041 119.505-76.471 166.003-41.431 46.499-95.787 79.591-156.117 95.046-17.12 4.386-27.444 21.82-23.058 38.94zM524.375 630.4c-46.677 0-91.444-18.543-124.451-51.549s-51.549-77.773-51.549-124.451 18.544-91.446 51.55-124.45c33.004-33.007 77.771-51.55 124.45-51.55s91.448 18.544 124.451 51.553c33.005 32.999 51.549 77.767 51.549 124.447s-18.543 91.446-51.552 124.452c-33.002 33.004-77.77 51.548-124.448 51.548zM524.375 566.4c29.704 0 58.192-11.8 79.193-32.803 21.007-21.005 32.807-49.492 32.807-79.197s-11.8-58.192-32.804-79.192c-21.004-21.008-49.491-32.808-79.196-32.808s-58.192 11.8-79.195 32.805c-21.005 21.003-32.805 49.492-32.805 79.195s11.8 58.192 32.804 79.196c21.004 21.003 49.492 32.804 79.196 32.804zM581.975 889.6c16.129 0 31.6-6.408 42.989-17.807 9.774-9.773 15.879-22.532 17.423-36.133l0.388-6.861v-259.2c0-17.673-14.327-32-32-32-16.066 0-29.367 11.84-31.653 27.271l-0.347 4.729-0.010 256h-108.8l0.010-256c0-16.066-11.84-29.367-27.271-31.653l-4.729-0.347c-16.066 0-29.367 11.84-31.653 27.271l-0.347 4.729v259.2c0 16.125 6.406 31.59 17.808 42.992 9.773 9.773 22.531 15.876 36.132 17.42l6.86 0.388h115.2zM431.594 823.259c17.319 3.521 34.213-7.665 37.734-24.983s-7.665-34.213-24.983-37.734c-132.716-26.981-227.463-124.567-233.256-237.942l-0.281-11.019v-28.8c0-4.739-1.052-9.399-3.058-13.651l-2.319-4.103-69.887-104.795c-2.271-3.406-3.691-7.312-4.14-11.389-0.448-4.080 0.089-8.202 1.568-12.030 1.478-3.824 3.855-7.239 6.925-9.953 2.049-1.81 4.37-3.275 6.866-4.345l3.864-1.303 35.942-8.986c17.145-4.286 27.57-21.66 23.283-38.806-3.858-15.431-18.316-25.418-33.669-24.136l-5.137 0.853-35.957 8.989c-13.922 3.488-26.803 10.265-37.569 19.773-10.756 9.507-19.070 21.453-24.246 34.843-5.175 13.393-7.056 27.825-5.488 42.094 1.255 11.419 4.691 22.462 10.093 32.538l4.417 7.366 64.493 96.805 0.017 19.036c0 146.347 113.196 271.173 271.492 308.75l13.294 2.928zM346.376 111.144c17.873 2.965 34.269-9.424 36.877-26.734l0.36-4.835v-85.98c0-17.673-14.327-32-32-32-16.066 0-29.367 11.84-31.653 27.271l-0.347 4.729-0.023 48.236-1.298-0.221c-16.264-2.757-32.849-2.739-49.056 0.022l-12.073 2.585c-17.11 4.425-27.394 21.882-22.969 38.992 3.982 15.399 18.521 25.269 33.862 23.863l5.13-0.894c8.432-2.18 17.136-3.007 25.834-2.458l8.686 1.008 38.669 6.415zM524.375 486.4c17.673 0 32-14.327 32-32 0-84.87-33.714-166.265-93.726-226.275-56.481-56.481-131.902-89.667-211.337-93.376l-14.937-0.348h-57.6c-17.673 0-32 14.327-32 32 0 16.066 11.84 29.367 27.271 31.653l4.729 0.347h57.6c67.896 0 133.011 26.971 181.019 74.98s74.981 113.124 74.981 181.020c0 17.673 14.327 32 32 32z" />
<glyph unicode="&#xe91b;" glyph-name="grid" d="M448 886.4h-345.6c-15.906 0-28.8-12.894-28.8-28.8v-345.6c0-15.906 12.894-28.8 28.8-28.8h345.6c15.906 0 28.8 12.894 28.8 28.8v345.6c0 15.906-12.894 28.8-28.8 28.8zM419.174 828.826v-288h-288v288h288zM448 368h-345.6c-15.906 0-28.8-12.894-28.8-28.8v-345.6c0-15.906 12.894-28.8 28.8-28.8h345.6c15.906 0 28.8 12.894 28.8 28.8v345.6c0 15.906-12.894 28.8-28.8 28.8zM419.174 310.426v-288h-288v288h288zM966.4 886.4h-345.6c-15.906 0-28.8-12.894-28.8-28.8v-345.6c0-15.906 12.894-28.8 28.8-28.8h345.6c15.906 0 28.8 12.894 28.8 28.8v345.6c0 15.906-12.894 28.8-28.8 28.8zM937.574 828.826v-288h-288v288h288zM966.4 368h-345.6c-15.906 0-28.8-12.894-28.8-28.8v-345.6c0-15.906 12.894-28.8 28.8-28.8h345.6c15.906 0 28.8 12.894 28.8 28.8v345.6c0 15.906-12.894 28.8-28.8 28.8zM937.574 310.426v-288h-288v288h288z" />
<glyph unicode="&#xe91c;" glyph-name="info-circle" d="M534.399 664.319c-8.543 0-16.895-2.534-23.998-7.28-7.106-4.749-12.642-11.494-15.912-19.387-3.271-7.897-4.126-16.585-2.458-24.966 1.665-8.375 5.78-16.072 11.822-22.115s13.739-10.156 22.12-11.823c8.377-1.666 17.064-0.811 24.956 2.456 7.903 3.28 14.648 8.814 19.392 15.914 4.746 7.104 7.28 15.456 7.28 24 0 11.455-4.553 22.438-12.645 30.537-8.123 8.114-19.104 12.663-30.558 12.663zM537.209 635.242c2.793-0.556 5.36-1.927 7.374-3.941s3.386-4.581 3.941-7.374c0.555-2.79 0.27-5.687-0.82-8.318s-2.935-4.88-5.301-6.461c-2.371-1.584-5.154-2.428-8.004-2.428-3.818 0-7.476 1.516-10.169 4.206-2.712 2.715-4.228 6.371-4.228 10.194 0 2.848 0.844 5.632 2.426 7.999 1.584 2.37 3.825 4.209 6.446 5.297 2.652 1.098 5.543 1.383 8.335 0.827zM534.337 533.119c14.315 0 26.191-10.444 28.423-24.128l0.377-4.672v-286.719c0-15.906-12.894-28.8-28.8-28.8-14.315 0-26.191 10.444-28.423 24.128l-0.377 4.672v286.719c0 15.906 12.894 28.8 28.8 28.8zM534.337 886.4c-122.212 0-239.418-48.549-325.835-134.965s-134.965-203.623-134.965-325.835c0-122.214 48.548-239.419 134.966-325.834 86.414-86.418 203.62-134.966 325.834-134.966 122.216 0 239.421 48.548 325.835 134.967 86.418 86.412 134.965 203.617 134.965 325.833 0 122.214-48.548 239.42-134.966 325.835-86.414 86.416-203.62 134.965-325.834 134.965zM534.337 828.8c106.937 0 209.492-42.48 285.105-118.094 75.616-75.613 118.095-178.168 118.095-285.106s-42.479-209.493-118.095-285.104c-75.612-75.617-178.166-118.096-285.105-118.096-106.938 0-209.493 42.479-285.105 118.095-75.615 75.613-118.095 178.168-118.095 285.105 0 106.935 42.48 209.491 118.095 285.105s178.17 118.095 285.105 118.095z" />
<glyph unicode="&#xe91d;" glyph-name="kitchen" d="M304 188.8c14.315 0 26.191-10.444 28.423-24.128l0.377-4.672v-28.8c0-15.906-12.894-28.8-28.8-28.8-14.315 0-26.191 10.444-28.423 24.128l-0.377 4.672v28.8c0 15.906 12.894 28.8 28.8 28.8zM419.2 246.4c14.315 0 26.191-10.444 28.423-24.128l0.377-4.672v-86.4c0-15.906-12.894-28.8-28.8-28.8-14.315 0-26.191 10.444-28.423 24.128l-0.377 4.672v86.4c0 15.906 12.894 28.8 28.8 28.8zM534.4 188.8c14.315 0 26.191-10.444 28.423-24.128l0.377-4.672v-28.8c0-15.906-12.894-28.8-28.8-28.8-14.315 0-26.191 10.444-28.423 24.128l-0.377 4.672v28.8c0 15.906 12.894 28.8 28.8 28.8zM764.8 188.8c14.315 0 26.191-10.444 28.423-24.128l0.377-4.672v-28.8c0-15.906-12.894-28.8-28.8-28.8-14.315 0-26.191 10.444-28.423 24.128l-0.377 4.672v28.8c0 15.906 12.894 28.8 28.8 28.8zM649.6 246.4c14.315 0 26.191-10.444 28.423-24.128l0.377-4.672v-86.4c0-15.906-12.894-28.8-28.8-28.8-14.315 0-26.191 10.444-28.423 24.128l-0.377 4.672v86.4c0 15.906 12.894 28.8 28.8 28.8zM822.4 73.6c15.906 0 28.8-12.894 28.8-28.8 0-14.315-10.444-26.191-24.128-28.423l-4.672-0.377h-576c-15.906 0-28.8 12.894-28.8 28.8 0 14.315 10.444 26.191 24.128 28.423l4.672 0.377h576zM764.8 822.4h-460.8c-15.906 0-28.8-12.894-28.8-28.8v-422.4c0-17.824 7.081-34.919 19.686-47.52 12.595-12.599 29.689-19.68 47.514-19.68h384c17.826 0 34.923 7.082 47.523 19.691 12.595 12.586 19.677 29.683 19.677 47.509v422.4c0 15.906-12.894 28.8-28.8 28.8zM332.8 764.826h403.2v-393.626c0-2.546-1.010-4.985-2.806-6.779-1.809-1.81-4.248-2.821-6.794-2.821h-384c-2.546 0-4.986 1.011-6.785 2.81l-1.532 1.996c-0.834 1.446-1.284 3.097-1.284 4.794v393.626zM822.4 822.4c15.906 0 28.8-12.894 28.8-28.8 0-14.315-10.444-26.191-24.128-28.423l-4.672-0.377h-576c-15.906 0-28.8 12.894-28.8 28.8 0 14.315 10.444 26.191 24.128 28.423l4.672 0.377h576zM304 707.2c15.906 0 28.8-12.894 28.8-28.8 0-14.315-10.444-26.191-24.128-28.423l-4.672-0.377h-115.2c-15.906 0-28.8 12.894-28.8 28.8 0 14.315 10.444 26.191 24.128 28.423l4.672 0.377h115.2zM880 707.2c15.906 0 28.8-12.894 28.8-28.8 0-14.315-10.444-26.191-24.128-28.423l-4.672-0.377h-115.2c-15.906 0-28.8 12.894-28.8 28.8 0 14.315 10.444 26.191 24.128 28.423l4.672 0.377h115.2zM534.4 937.6c38.189 0 74.816-15.171 101.825-42.178 27.003-27.007 42.175-63.633 42.175-101.822 0-15.906-12.894-28.8-28.8-28.8-14.315 0-26.191 10.444-28.423 24.128l-0.377 4.672c0 22.913-9.104 44.89-25.305 61.093-16.205 16.204-38.182 25.307-61.095 25.307-22.915 0-44.891-9.103-61.094-25.306s-25.306-38.179-25.306-61.094c0-15.906-12.894-28.8-28.8-28.8s-28.8 12.894-28.8 28.8c0 38.191 15.171 74.818 42.177 101.823s63.632 42.177 101.823 42.177z" />
<glyph unicode="&#xe91e;" d="M534.4 873.487c-58.831 0-117.088-11.588-171.442-34.102s-103.742-55.514-145.342-97.115c-41.6-41.6-74.6-90.987-97.114-145.341s-34.102-112.611-34.102-171.442c0-58.833 11.588-117.090 34.102-171.444s55.513-103.739 97.114-145.342c41.604-41.601 90.993-74.6 145.343-97.111 54.349-22.515 112.605-34.103 171.441-34.103 58.838 0 117.095 11.588 171.446 34.105 54.346 22.509 103.733 55.507 145.339 97.107 41.604 41.609 74.602 90.996 97.112 145.345 22.515 54.348 34.103 112.605 34.103 171.443 0 58.836-11.588 117.092-34.105 171.444-22.509 54.347-55.509 103.736-97.108 145.338-41.604 41.603-90.991 74.602-145.343 97.116-54.354 22.514-112.611 34.102-171.444 34.102zM534.4 796.687c48.748 0 97.018-9.601 142.054-28.256s85.955-45.997 120.427-80.467c34.467-34.47 61.81-75.392 80.461-120.424 18.657-45.035 28.258-93.303 28.258-142.053s-9.601-97.020-28.257-142.052c-18.652-45.034-45.994-85.956-80.465-120.43-34.471-34.467-75.393-61.809-120.424-80.46-45.035-18.657-93.304-28.258-142.055-28.258s-97.018 9.601-142.050 28.257c-45.035 18.652-85.957 45.995-120.429 80.464-34.469 34.47-61.811 75.391-80.465 120.426s-28.256 93.306-28.256 142.054c0 48.746 9.601 97.016 28.256 142.053s45.997 85.957 80.466 120.425 75.39 61.812 120.426 80.467c45.036 18.654 93.306 28.256 142.052 28.256z" />
<glyph unicode="&#xe91f;" d="M796.881 742.272c14.996 14.996 39.31 14.995 54.306-0.001 77.688-77.691 124.118-181.223 130.463-290.91 6.35-109.684-27.835-217.883-96.052-304.020-68.214-86.128-165.704-144.189-273.929-163.139s-219.64 2.53-313.063 60.357c-18.033 11.162-23.603 34.829-12.441 52.861s34.829 23.603 52.861 12.441c77.409-47.913 169.725-65.712 259.397-50.010s170.451 63.809 226.97 135.172c56.522 71.371 84.847 161.021 79.586 251.901-5.257 90.886-43.728 176.67-108.098 241.042-14.996 14.996-14.995 39.31 0.001 54.306z" />
<glyph unicode="&#xe920;" glyph-name="minus" d="M892.875 464c21.208 0 38.4-17.192 38.4-38.4 0-19.44-14.446-35.507-33.189-38.049l-5.211-0.351h-716.8c-21.208 0-38.4 17.192-38.4 38.4 0 19.44 14.446 35.507 33.189 38.049l5.211 0.351h716.8z" />
<glyph unicode="&#xe921;" glyph-name="more-horizontal" d="M716.8 435.2c0-16.974 6.743-33.252 18.744-45.256 12.001-12.001 28.283-18.744 45.256-18.744s33.254 6.743 45.256 18.744c12.001 12.003 18.744 28.282 18.744 45.256s-6.743 33.252-18.744 45.255c-12.001 12.002-28.283 18.745-45.256 18.745s-33.254-6.743-45.256-18.745c-12.001-12.002-18.744-28.281-18.744-45.255zM460.8 435.2c0-16.974 6.743-33.252 18.745-45.256 12.002-12.001 28.281-18.744 45.255-18.744s33.252 6.743 45.256 18.744c12.001 12.003 18.744 28.282 18.744 45.256s-6.743 33.252-18.744 45.255c-12.003 12.002-28.282 18.745-45.256 18.745s-33.252-6.743-45.255-18.745c-12.002-12.002-18.745-28.281-18.745-45.255zM204.8 435.2c0-16.974 6.743-33.252 18.745-45.256 12.002-12.001 28.281-18.744 45.255-18.744s33.252 6.743 45.255 18.744c12.002 12.003 18.745 28.282 18.745 45.256s-6.743 33.252-18.745 45.255c-12.002 12.002-28.281 18.745-45.255 18.745s-33.252-6.743-45.255-18.745c-12.002-12.002-18.745-28.281-18.745-45.255v0z" />
<glyph unicode="&#xe922;" glyph-name="more" d="M460.8 179.2c0-16.973 6.743-33.254 18.745-45.256s28.281-18.744 45.255-18.744c16.974 0 33.252 6.743 45.256 18.744 12.001 12.001 18.744 28.283 18.744 45.256s-6.743 33.254-18.744 45.256c-12.003 12.001-28.282 18.744-45.256 18.744s-33.252-6.743-45.255-18.744c-12.002-12.001-18.745-28.283-18.745-45.256zM460.8 435.2c0-16.974 6.743-33.252 18.745-45.256 12.002-12.001 28.281-18.744 45.255-18.744s33.252 6.743 45.256 18.744c12.001 12.003 18.744 28.282 18.744 45.256s-6.743 33.252-18.744 45.255c-12.003 12.002-28.282 18.745-45.256 18.745s-33.252-6.743-45.255-18.745c-12.002-12.002-18.745-28.281-18.745-45.255zM460.8 691.2c0-16.974 6.743-33.252 18.745-45.255s28.281-18.745 45.255-18.745c16.974 0 33.252 6.743 45.256 18.745 12.001 12.002 18.744 28.281 18.744 45.255s-6.743 33.252-18.744 45.255c-12.003 12.002-28.282 18.745-45.256 18.745s-33.252-6.743-45.255-18.745c-12.002-12.002-18.745-28.281-18.745-45.255z" />
<glyph unicode="&#xe923;" glyph-name="notification" d="M572.704 56.926l1.847 5.057c5.976 20.348 27.316 31.999 47.664 26.024s31.999-27.316 26.024-47.664c-7.217-24.576-22.199-46.152-42.699-61.497-20.503-15.353-45.429-23.652-71.042-23.652s-50.538 8.298-71.044 23.65c-20.504 15.351-35.484 36.928-42.698 61.503-5.974 20.349 5.68 41.688 26.029 47.661 18.653 5.476 38.138-3.86 45.857-21.128l1.804-4.901c2.54-8.652 7.815-16.25 15.036-21.656 7.223-5.407 16-8.33 25.017-8.33 9.015 0 17.79 2.922 25.015 8.332 5.777 4.324 10.309 10.051 13.192 16.601zM534.4 895.963c19.44 0 35.507-14.446 38.049-33.189l0.351-5.211v-86.4c0-21.208-17.192-38.4-38.4-38.4-19.44 0-35.507 14.446-38.049 33.189l-0.351 5.211v86.4c0 21.208 17.192 38.4 38.4 38.4zM534.4 809.563c-86.566 0-169.587-34.388-230.8-95.6s-95.6-144.234-95.6-230.8c0-102.882-10.322-181.446-27.23-238.741l-2.808-9.168-5.376-15.713c-5.172-14.003-9.648-22.956-12.649-27.563l-1.374-1.945c-19.733-25.205-1.775-62.071 30.236-62.071h691.2c36.267 0 52.32 45.644 24.037 68.346l-1.931 2.925-2.507 4.823-3.316 7.397c-0.612 1.46-1.252 3.038-1.916 4.738l-4.259 11.701c-0.751 2.207-1.521 4.546-2.307 7.022-16.687 52.586-27.001 133.541-27.001 248.248 0 86.567-34.387 169.588-95.599 230.8s-144.236 95.6-230.801 95.6zM534.4 732.763c66.197 0 129.686-26.298 176.495-73.106s73.105-110.295 73.105-176.494l0.116-21.19c1.239-111.173 12.305-193.005 30.482-250.287l2.323-6.923h-568.218l3.899 11.865 1.827 6.057c19.092 64.697 30.37 150.537 30.37 260.478 0 66.198 26.297 129.685 73.106 176.494s110.296 73.106 176.494 73.106z" />
<glyph unicode="&#xe924;" glyph-name="operations" d="M395.735 484.613c-14.527-3.272-27.686-10.96-37.67-22.009l-19.251-21.407c-0.694-0.766-1.629-1.443-2.662-1.9-1.055-0.469-2.177-0.706-3.323-0.706s-2.268 0.238-3.299 0.695c-1.057 0.468-1.992 1.145-2.762 1.995l-19.28 21.205c-10.207 11.023-23.284 18.507-37.673 21.662s-29.4 1.827-43.012-3.802-25.176-15.293-33.133-27.69c-7.957-12.396-11.928-26.93-11.379-41.652l1.478-29.115c0.064-1.215-0.116-2.359-0.525-3.424-0.414-1.080-1.043-2.049-1.852-2.858-0.805-0.805-1.776-1.435-2.852-1.848-1.072-0.411-2.209-0.591-3.337-0.53l-28.775 1.464c-14.871 0.755-29.607-3.103-42.193-11.052-12.592-7.953-22.413-19.611-28.115-33.37-5.702-13.748-7.006-28.934-3.734-43.464 3.273-14.526 10.96-27.684 22.007-37.667l21.409-19.252c0.769-0.696 1.444-1.629 1.907-2.673s0.702-2.171 0.702-3.311c0-1.141-0.24-2.272-0.703-3.318-0.459-1.033-1.136-1.969-1.976-2.729l-21.28-19.137c-11.077-10.019-18.746-23.132-22.028-37.609s-2.017-29.616 3.623-43.348c5.638-13.728 15.374-25.384 27.878-33.378 12.523-7.997 27.191-11.934 42.018-11.28l28.948 1.513c1.162 0.061 2.319-0.121 3.408-0.538 1.041-0.399 2.014-1.031 2.827-1.844 0.808-0.808 1.437-1.777 1.846-2.845 0.413-1.077 0.594-2.22 0.533-3.36l-1.463-28.758c-0.761-14.862 3.1-29.605 11.053-42.195 7.951-12.587 19.602-22.406 33.355-28.11 13.775-5.704 28.958-7.007 43.484-3.732 14.515 3.264 27.678 10.953 37.664 22.008l19.247 21.402c0.696 0.77 1.624 1.441 2.663 1.901 1.064 0.473 2.188 0.711 3.322 0.711s2.258-0.238 3.298-0.7c1.064-0.472 1.991-1.142 2.752-1.983l19.136-21.28c10.033-11.107 23.196-18.796 37.73-22.065 14.506-3.272 29.689-1.968 43.447 3.729 13.77 5.712 25.422 15.53 33.373 28.118 7.952 12.59 11.813 27.333 11.052 42.205l-1.499 28.72c-0.062 1.169 0.118 2.313 0.527 3.379 0.413 1.077 1.042 2.046 1.851 2.856 0.812 0.812 1.784 1.443 2.851 1.852 1.063 0.407 2.22 0.589 3.367 0.529l28.7-1.501c14.903-0.765 29.645 3.097 42.237 11.050 12.594 7.948 22.42 19.607 28.12 33.374 5.7 13.745 7.006 28.935 3.728 43.466-3.275 14.524-10.961 27.681-22.011 37.664l-21.401 19.248c-0.771 0.698-1.449 1.634-1.913 2.68-0.458 1.033-0.698 2.163-0.698 3.305 0 1.14 0.239 2.266 0.698 3.3 0.468 1.056 1.143 1.989 1.982 2.747l21.279 19.138c11.101 10.029 18.787 23.184 22.064 37.707 3.278 14.539 1.972 29.731-3.738 43.49-5.69 13.743-15.516 25.407-28.119 33.361-12.576 7.943-27.311 11.801-42.178 11.047l-28.689-1.459c-1.218-0.065-2.355 0.114-3.428 0.526-1.076 0.413-2.046 1.042-2.851 1.847-0.809 0.809-1.439 1.779-1.849 2.849-0.412 1.074-0.592 2.218-0.532 3.362l1.499 28.712c0.763 14.905-3.098 29.648-11.050 42.238s-19.607 22.411-33.363 28.112c-13.756 5.702-28.94 7.007-43.467 3.735zM409.796 422.176c1.637 0.369 3.349 0.222 4.9-0.422 1.549-0.642 2.862-1.748 3.758-3.167s1.332-3.081 1.246-4.757l-1.496-28.649c-0.536-10.080 1.060-20.19 4.685-29.64 3.621-9.448 9.193-18.033 16.352-25.192 7.156-7.156 15.739-12.725 25.19-16.349 9.458-3.627 19.572-5.225 29.685-4.682l28.595 1.454c1.682 0.085 3.346-0.35 4.764-1.246 1.421-0.897 2.523-2.205 3.163-3.751 0.65-1.565 0.796-3.27 0.428-4.902-0.37-1.639-1.238-3.125-2.482-4.249l-21.295-19.152c-7.546-6.826-13.523-15.088-17.613-24.308-4.087-9.204-6.2-19.178-6.2-29.263 0-10.082 2.112-20.052 6.2-29.268 4.095-9.222 10.070-17.48 17.544-24.241l21.416-19.262c1.191-1.076 2.058-2.56 2.429-4.207 0.368-1.631 0.221-3.336-0.421-4.885-0.645-1.558-1.745-2.863-3.162-3.757-1.431-0.904-3.089-1.338-4.758-1.253l-28.655 1.499c-10.079 0.532-20.174-1.063-29.615-4.674-9.476-3.634-18.058-9.207-25.215-16.364-7.159-7.159-12.731-15.744-16.355-25.199-3.622-9.443-5.218-19.553-4.68-29.659l1.496-28.656c0.084-1.643-0.351-3.305-1.247-4.723s-2.212-2.528-3.767-3.173c-1.538-0.637-3.25-0.784-4.882-0.416-1.652 0.372-3.129 1.234-4.25 2.475l-19.153 21.298c-6.833 7.553-15.095 13.529-24.318 17.617-9.193 4.084-19.168 6.201-29.255 6.201s-20.061-2.116-29.28-6.211c-9.2-4.078-17.463-10.054-24.231-17.537l-19.262-21.419c-1.074-1.189-2.551-2.052-4.184-2.419-1.651-0.372-3.363-0.226-4.919 0.419-1.537 0.638-2.853 1.746-3.749 3.165s-1.331 3.080-1.245 4.756l1.46 28.697c0.533 10.035-1.063 20.145-4.688 29.594-3.619 9.444-9.191 18.030-16.351 25.189-7.158 7.157-15.74 12.73-25.189 16.354-9.468 3.622-19.563 5.217-29.657 4.684l-28.669-1.499c-1.409-0.061-3.066 0.383-4.479 1.286-1.399 0.894-2.499 2.212-3.136 3.763-0.635 1.546-0.777 3.252-0.408 4.883s1.235 3.11 2.474 4.232l21.283 19.139c7.544 6.824 13.519 15.082 17.61 24.293 4.093 9.229 6.205 19.198 6.205 29.279 0 10.084-2.113 20.057-6.204 29.271-4.086 9.211-10.063 17.473-17.541 24.238l-21.42 19.263c-1.188 1.074-2.056 2.559-2.424 4.195s-0.222 3.346 0.419 4.89c0.646 1.56 1.754 2.874 3.169 3.768 1.418 0.895 3.084 1.331 4.771 1.246l28.681-1.459c10.023-0.538 20.137 1.059 29.595 4.686 9.451 3.625 18.032 9.192 25.188 16.348 7.161 7.161 12.734 15.747 16.357 25.203 3.621 9.438 5.216 19.548 4.68 29.657l-1.456 28.613c-0.043 1.228 0.404 2.864 1.301 4.261s2.2 2.486 3.733 3.12c1.535 0.635 3.227 0.784 4.849 0.429 1.621-0.355 3.095-1.199 4.223-2.417l19.040-20.943c6.725-7.426 14.984-13.402 24.199-17.486 9.195-4.084 19.169-6.196 29.256-6.196s20.063 2.112 29.281 6.207c9.19 4.073 17.448 10.048 24.216 17.52l19.277 21.436c1.074 1.189 2.557 2.055 4.193 2.423zM332.85 313.564c-11.772 0-23.427-2.32-34.3-6.829-10.849-4.491-20.727-11.090-29.049-19.407-8.33-8.333-14.929-18.208-19.43-29.077-4.503-10.872-6.82-22.523-6.82-34.287 0-11.768 2.317-23.419 6.819-34.291 4.509-10.878 11.111-20.759 19.43-29.073 8.313-8.316 18.194-14.919 29.069-19.421 10.869-4.499 22.518-6.816 34.282-6.816s23.411 2.316 34.281 6.816c10.876 4.502 20.757 11.106 29.080 19.432 8.308 8.302 14.91 18.183 19.415 29.052 4.506 10.879 6.824 22.531 6.824 34.3 0 11.765-2.318 23.417-6.821 34.287-4.502 10.87-11.101 20.745-19.42 29.066-8.331 8.327-18.209 14.926-29.078 19.425-10.856 4.501-22.511 6.821-34.282 6.821zM332.85 249.564c3.36 0 6.685-0.662 9.786-1.947 3.118-1.291 5.941-3.177 8.322-5.557 2.37-2.371 4.256-5.194 5.543-8.3s1.949-6.436 1.949-9.796c0-3.365-0.662-6.694-1.949-9.801-1.286-3.102-3.173-5.926-5.542-8.294-2.388-2.389-5.207-4.273-8.306-5.556-3.11-1.287-6.441-1.95-9.803-1.95s-6.694 0.662-9.803 1.95c-3.099 1.283-5.918 3.167-8.296 5.545-2.38 2.378-4.267 5.203-5.556 8.312-1.283 3.098-1.945 6.428-1.945 9.793 0 3.36 0.662 6.69 1.949 9.798 1.286 3.104 3.172 5.927 5.553 8.309 2.37 2.369 5.194 4.255 8.294 5.539 3.118 1.293 6.443 1.955 9.803 1.955zM798.936 887.813c-14.528-3.273-27.686-10.961-37.669-22.007l-19.252-21.409c-0.696-0.769-1.628-1.444-2.671-1.906-1.048-0.465-2.173-0.703-3.313-0.703-1.142 0-2.272 0.239-3.316 0.702-1.042 0.462-1.977 1.139-2.751 1.993l-19.275 21.201c-10.212 11.025-23.287 18.508-37.671 21.663-14.396 3.154-29.405 1.828-43.016-3.802s-25.169-15.29-33.128-27.684c-7.958-12.393-11.928-26.925-11.386-41.644l1.479-29.131c0.065-1.218-0.114-2.355-0.526-3.428-0.413-1.076-1.042-2.046-1.847-2.851-0.81-0.81-1.779-1.439-2.849-1.849-1.074-0.412-2.218-0.592-3.362-0.532l-28.754 1.463c-14.862 0.761-29.604-3.1-42.195-11.052s-22.41-19.607-28.113-33.362c-5.703-13.757-7.007-28.942-3.735-43.469s10.96-27.684 22.009-37.668l21.406-19.25c0.77-0.696 1.44-1.624 1.901-2.662 0.469-1.055 0.706-2.178 0.706-3.323s-0.238-2.268-0.695-3.299c-0.471-1.062-1.142-1.99-1.981-2.749l-21.281-19.138c-11.077-10.019-18.746-23.131-22.028-37.609s-2.017-29.615 3.623-43.347c5.639-13.731 15.377-25.388 27.885-33.38 12.512-7.993 27.182-11.932 42.011-11.277l28.945 1.51c1.173 0.062 2.315-0.118 3.391-0.531 1.061-0.407 2.033-1.038 2.843-1.848 0.812-0.812 1.443-1.785 1.853-2.852 0.408-1.065 0.589-2.212 0.528-3.366l-1.462-28.746c-0.763-14.857 3.099-29.603 11.052-42.194 7.951-12.589 19.602-22.408 33.357-28.113 13.775-5.703 28.959-7.007 43.483-3.73 14.517 3.264 27.685 10.955 37.669 22.017l19.239 21.395c0.696 0.768 1.631 1.445 2.673 1.907s2.173 0.702 3.316 0.702c1.14 0 2.266-0.239 3.313-0.703 1.042-0.462 1.975-1.137 2.734-1.976l19.137-21.281c10.035-11.107 23.197-18.796 37.727-22.065 14.513-3.272 29.699-1.969 43.454 3.73 13.76 5.707 25.407 15.52 33.363 28.103 7.961 12.605 11.819 27.351 11.055 42.224l-1.496 28.709c-0.062 1.175 0.119 2.322 0.528 3.388s1.041 2.040 1.854 2.853c0.809 0.809 1.781 1.44 2.849 1.85 1.067 0.41 2.211 0.59 3.357 0.529l28.709-1.499c14.905-0.763 29.648 3.098 42.238 11.050 12.593 7.955 22.42 19.612 28.118 33.373 5.701 13.744 7.007 28.934 3.729 43.466-3.276 14.526-10.963 27.683-22.014 37.664l-21.402 19.247c-0.763 0.691-1.443 1.632-1.912 2.687-0.455 1.026-0.695 2.159-0.695 3.298s0.24 2.271 0.706 3.323c0.458 1.031 1.138 1.971 1.986 2.739l21.265 19.123c11.102 10.028 18.79 23.184 22.066 37.71 3.277 14.533 1.971 29.722-3.736 43.483-5.692 13.743-15.518 25.402-28.111 33.356-12.59 7.952-27.333 11.813-42.205 11.052l-28.673-1.459c-1.216-0.065-2.36 0.116-3.427 0.525-1.068 0.41-2.040 1.041-2.849 1.85-0.813 0.813-1.445 1.786-1.854 2.853s-0.59 2.213-0.529 3.367l1.496 28.706c0.765 14.897-3.092 29.641-11.044 42.233-7.967 12.599-19.616 22.415-33.363 28.112-13.754 5.704-28.94 7.009-43.469 3.737zM812.998 825.377c1.636 0.368 3.346 0.221 4.897-0.422s2.867-1.752 3.77-3.18c0.885-1.401 1.319-3.060 1.233-4.737l-1.494-28.661c-0.532-10.084 1.061-20.188 4.684-29.635 3.624-9.45 9.197-18.033 16.354-25.19 7.154-7.155 15.736-12.726 25.184-16.351 9.453-3.626 19.563-5.221 29.672-4.684l28.61 1.455c1.686 0.086 3.347-0.349 4.765-1.245 1.422-0.898 2.528-2.211 3.166-3.75 0.649-1.564 0.795-3.269 0.428-4.9-0.371-1.643-1.237-3.126-2.48-4.249l-21.298-19.153c-7.55-6.838-13.516-15.087-17.606-24.294-4.094-9.238-6.206-19.203-6.206-29.28s2.112-20.042 6.195-29.255c4.101-9.232 10.068-17.481 17.533-24.242l21.434-19.275c1.191-1.076 2.058-2.559 2.428-4.203 0.368-1.63 0.221-3.335-0.421-4.883-0.644-1.556-1.75-2.868-3.172-3.766-1.418-0.896-3.080-1.331-4.756-1.245l-28.649 1.496c-10.083 0.535-20.192-1.061-29.643-4.686-9.446-3.623-18.028-9.194-25.184-16.351-7.157-7.158-12.73-15.74-16.354-25.189s-5.217-19.552-4.684-29.657l1.494-28.663c0.085-1.653-0.349-3.313-1.243-4.727s-2.213-2.525-3.768-3.17c-1.539-0.638-3.25-0.785-4.885-0.416-1.647 0.371-3.127 1.235-4.249 2.477l-19.151 21.296c-6.828 7.548-15.090 13.525-24.309 17.615-9.218 4.088-19.182 6.2-29.263 6.2s-20.050-2.112-29.266-6.199c-9.215-4.088-17.467-10.059-24.234-17.529l-19.278-21.437c-1.075-1.191-2.548-2.051-4.181-2.418-1.652-0.373-3.364-0.226-4.921 0.419-1.536 0.637-2.849 1.744-3.746 3.163-0.898 1.421-1.333 3.082-1.247 4.752l1.46 28.7c0.53 10.044-1.064 20.148-4.686 29.595-3.624 9.45-9.197 18.032-16.353 25.188-7.158 7.158-15.74 12.729-25.188 16.353-9.459 3.625-19.56 5.22-29.667 4.684l-28.66-1.496c-1.41-0.061-3.063 0.383-4.474 1.284-1.408 0.9-2.506 2.214-3.142 3.762-0.635 1.547-0.778 3.252-0.408 4.884s1.234 3.109 2.474 4.231l21.283 19.139c7.552 6.831 13.528 15.093 17.616 24.316 4.084 9.195 6.196 19.169 6.196 29.256s-2.112 20.062-6.206 29.28c-4.077 9.199-10.053 17.461-17.535 24.23l-21.421 19.264c-1.189 1.074-2.055 2.557-2.424 4.193-0.369 1.638-0.222 3.349 0.421 4.899s1.749 2.863 3.168 3.759 3.080 1.331 4.756 1.245l28.692-1.46c10.037-0.533 20.147 1.062 29.597 4.687 9.449 3.621 18.034 9.194 25.193 16.354 7.155 7.155 12.723 15.737 16.348 25.188 3.627 9.458 5.225 19.572 4.682 29.685l-1.454 28.595c-0.042 1.223 0.406 2.863 1.301 4.256 0.9 1.402 2.204 2.491 3.736 3.125 1.534 0.634 3.226 0.784 4.851 0.428 1.616-0.354 3.092-1.199 4.223-2.421l19.033-20.937c6.729-7.429 14.981-13.4 24.195-17.487s19.184-6.199 29.266-6.199c10.081 0 20.047 2.112 29.263 6.2 9.218 4.088 17.481 10.066 24.246 17.544l19.263 21.42c1.074 1.188 2.559 2.056 4.195 2.424zM736.051 716.763c-23.764 0-46.551-9.439-63.356-26.242s-26.244-39.593-26.244-63.358c0-23.765 9.439-46.555 26.244-63.358s39.592-26.242 63.356-26.242c23.76 0 46.552 9.44 63.356 26.242s26.244 39.594 26.244 63.358-9.439 46.555-26.244 63.358c-16.804 16.802-39.596 26.242-63.356 26.242zM736.051 652.763c6.787 0 13.302-2.698 18.103-7.499 4.8-4.8 7.497-11.31 7.497-18.101s-2.697-13.301-7.497-18.101c-4.801-4.801-11.315-7.499-18.103-7.499-6.791 0-13.3 2.696-18.103 7.499-4.8 4.8-7.497 11.31-7.497 18.101s2.696 13.301 7.497 18.101c4.803 4.803 11.313 7.499 18.103 7.499z" />
<glyph unicode="&#xe925;" glyph-name="order-fulfillment" d="M523.704 884.34l-432-172.8c-24.139-9.655-24.139-43.825 0-53.48l432-172.8c6.866-2.746 14.526-2.746 21.392 0l432 172.8c24.139 9.655 24.139 43.825 0 53.48l-432 172.8c-6.866 2.746-14.526 2.746-21.392 0zM534.374 826.573l354.458-141.773-354.458-141.722-354.458 141.722 354.458 141.773zM73.6 684.8v-518.4c0-11.776 7.17-22.366 18.104-26.74l432-172.8c18.918-7.567 39.496 6.365 39.496 26.74v518.4c0 11.776-7.17 22.366-18.104 26.74l-432 172.8c-18.918 7.567-39.496-6.365-39.496-26.74zM131.174 642.304l374.426-149.811v-456.346l-374.426 149.76v456.397zM955.704 711.54l-432-172.8c-10.934-4.374-18.104-14.964-18.104-26.74v-518.4c0-20.375 20.578-34.307 39.496-26.74l432 172.8c10.934 4.374 18.104 14.964 18.104 26.74v518.4c0 20.375-20.578 34.307-39.496 26.74zM937.574 642.304v-456.397l-374.374-149.709v456.346l374.374 149.76zM313.235 790.534c5.317 13.291 19.424 20.439 32.959 17.429l4.477-1.385 431.998-172.8c14.768-5.907 21.951-22.668 16.044-37.436-5.317-13.291-19.424-20.439-32.959-17.429l-4.477 1.385-431.998 172.8c-14.768 5.907-21.951 22.668-16.044 37.436zM854.907 279.54c14.768 5.907 31.529-1.276 37.436-16.045 5.316-13.291 0.029-28.197-11.847-35.351l-4.197-2.085-72.003-28.8c-14.768-5.907-31.529 1.276-37.436 16.045-5.316 13.291-0.029 28.197 11.847 35.351l4.197 2.085 72.003 28.8z" />
<glyph unicode="&#xe926;" glyph-name="orders" d="M736 485.962c-69.594 0-136.336-27.645-185.546-76.854s-76.854-115.952-76.854-185.546c0-69.594 27.645-136.336 76.854-185.546s115.952-76.854 185.546-76.854c69.594 0 136.337 27.645 185.546 76.854s76.854 115.952 76.854 185.546c0 69.594-27.645 136.337-76.854 185.546s-115.952 76.854-185.546 76.854zM736 421.962c52.62 0 103.084-20.903 140.291-58.109s58.109-87.671 58.109-140.291c0-52.62-20.903-103.084-58.109-140.291s-87.671-58.109-140.291-58.109c-52.62 0-103.084 20.903-140.291 58.109s-58.109 87.671-58.109 140.291c0 52.62 20.903 103.084 58.109 140.291s87.671 58.109 140.291 58.109zM736 357.399c16.066 0 29.367-11.84 31.653-27.271l0.347-4.729v-69.809l69.837-0.028c16.066 0 29.367-11.84 31.653-27.271l0.347-4.729c0-16.066-11.84-29.367-27.271-31.653l-4.729-0.347h-101.837c-16.066 0-29.367 11.84-31.653 27.271l-0.347 4.729v101.837c0 17.673 14.327 32 32 32zM476.8 514.762c17.673 0 32-14.327 32-32 0-16.066-11.84-29.367-27.271-31.653l-4.729-0.347h-201.6c-17.673 0-32 14.327-32 32 0 16.066 11.84 29.367 27.271 31.653l4.729 0.347h201.6zM390.4 370.762c17.673 0 32-14.327 32-32 0-16.066-11.84-29.367-27.271-31.653l-4.729-0.347h-115.2c-17.673 0-32 14.327-32 32 0 16.066 11.84 29.367 27.271 31.653l4.729 0.347h115.2zM390.4 226.762c17.673 0 32-14.327 32-32 0-16.066-11.84-29.367-27.271-31.653l-4.729-0.347h-115.2c-17.673 0-32 14.327-32 32 0 16.066 11.84 29.367 27.271 31.653l4.729 0.347h115.2zM448 889.162c46.678 0 91.445-18.543 124.448-51.548 22.852-22.85 38.771-51.337 46.404-82.193l2.204-10.256 114.944-0.002c20.793 0 40.839-7.227 56.783-20.29l6.572-5.952c14.704-14.702 23.77-33.989 25.806-54.502l0.438-8.856v-86.4c0-17.673-14.327-32-32-32-16.066 0-29.367 11.84-31.653 27.271l-0.347 4.729v86.4c0 6.791-2.696 13.301-7.497 18.101-3.843 3.842-8.777 6.336-14.074 7.181l-4.029 0.319h-144c-17.673 0-32 14.327-32 32 0 29.705-11.8 58.192-32.807 79.197-21.002 21.003-49.489 32.803-79.193 32.803s-58.192-11.8-79.196-32.804c-21.004-21.004-32.804-49.492-32.804-79.196 0-16.066-11.84-29.367-27.271-31.653l-4.729-0.347h-144c-6.789 0-13.301-2.697-18.102-7.498-3.84-3.84-6.335-8.776-7.179-14.073l-0.319-4.029v-604.8c0-6.79 2.697-13.3 7.499-18.103 3.84-3.84 8.775-6.334 14.072-7.178l4.029-0.319h288c17.673 0 32-14.327 32-32 0-16.066-11.84-29.367-27.271-31.653l-4.729-0.347h-288c-23.765 0-46.555 9.439-63.359 26.245-14.702 14.704-23.767 33.989-25.803 54.5l-0.438 8.856v604.8c0 23.763 9.44 46.554 26.243 63.357 14.703 14.703 33.99 23.768 54.501 25.805l8.856 0.438 114.893 0.002 2.255 10.255c6.784 27.427 20.116 52.983 39.043 74.372l7.358 7.821c33.007 33.006 77.773 51.549 124.451 51.549zM448 773.962l5.472-0.324c7.239-0.86 14.2-3.417 20.302-7.493 7.633-5.098 13.58-12.346 17.093-20.825s4.432-17.808 2.641-26.815c-1.791-9-6.211-17.267-12.695-23.75-6.489-6.491-14.756-10.91-23.762-12.702-9.001-1.79-18.33-0.871-26.809 2.642-8.477 3.512-15.724 9.459-20.825 17.092-5.096 7.629-7.817 16.598-7.817 25.775 0 12.307 4.889 24.11 13.588 32.807 7.252 7.253 16.657 11.857 26.712 13.19l6.099 0.402z" />
<glyph unicode="&#xe927;" glyph-name="question" d="M532.992 684.769l11.278-0.337c26.335-1.821 51.66-10.845 73.215-26.089s38.503-36.118 48.994-60.344c10.49-24.225 14.118-50.867 10.491-77.008-3.623-26.15-14.369-50.801-31.062-71.256-16.691-20.454-38.682-35.925-63.569-44.724-5.618-1.987-10.481-5.666-13.922-10.537-2.579-3.648-4.261-7.827-4.939-12.21l-0.34-4.439v-38.63c0-15.906-12.894-28.8-28.8-28.8-14.315 0-26.191 10.444-28.423 24.128l-0.377 4.672v38.616c-0.009 17.88 5.525 35.317 15.84 49.907 8.595 12.166 20.16 21.86 33.531 28.202l8.229 3.396c14.933 5.279 28.128 14.562 38.143 26.836 10.014 12.271 16.46 27.057 18.634 42.749 2.177 15.689 0 31.674-6.294 46.209s-16.462 27.059-29.394 36.204c-12.935 9.147-28.13 14.562-43.93 15.654-15.802 1.093-31.6-2.18-45.667-9.459s-25.863-18.285-34.098-31.815c-6.588-10.824-10.694-22.93-12.074-35.45l-0.52-9.453c-0.003-15.906-12.9-28.797-28.806-28.794s-28.797 12.9-28.794 28.806c0.005 26.399 7.267 52.288 20.991 74.838s33.385 40.894 56.83 53.026c20.096 10.399 42.311 15.892 64.833 16.102zM534.337 252.8c-8.544 0-16.896-2.534-23.999-7.28s-12.642-11.492-15.912-19.388c-3.27-7.894-4.126-16.585-2.458-24.964s5.784-16.082 11.833-22.125c6.014-6.024 13.71-10.136 22.085-11.809 8.419-1.667 17.095-0.815 24.986 2.455 7.885 3.268 14.623 8.794 19.372 15.887 4.762 7.12 7.291 15.479 7.291 24.020 0 11.454-4.547 22.447-12.649 30.548-8.104 8.104-19.090 12.654-30.548 12.654zM537.121 223.728c2.827-0.565 5.395-1.937 7.418-3.963 1.992-1.99 3.367-4.561 3.923-7.355s0.271-5.688-0.819-8.319c-1.091-2.633-2.938-4.884-5.307-6.466-2.365-1.58-5.148-2.424-7.997-2.424-3.818 0-7.483 1.518-10.181 4.216-2.707 2.707-4.222 6.368-4.222 10.181 0 2.839 0.844 5.628 2.439 8.014 1.583 2.365 3.826 4.204 6.447 5.29 2.635 1.092 5.525 1.376 8.299 0.827zM534.337 886.4c-122.212 0-239.418-48.549-325.835-134.965s-134.965-203.623-134.965-325.835c0-122.214 48.548-239.419 134.966-325.834 86.414-86.418 203.62-134.966 325.834-134.966 122.216 0 239.421 48.548 325.835 134.967 86.418 86.412 134.965 203.617 134.965 325.833 0 122.214-48.548 239.42-134.966 325.835-86.414 86.416-203.62 134.965-325.834 134.965zM534.337 828.8c106.937 0 209.492-42.48 285.105-118.094 75.616-75.613 118.095-178.168 118.095-285.106s-42.479-209.493-118.095-285.104c-75.612-75.617-178.166-118.096-285.105-118.096-106.938 0-209.493 42.479-285.105 118.095-75.615 75.613-118.095 178.168-118.095 285.105 0 106.935 42.48 209.491 118.095 285.105s178.17 118.095 285.105 118.095z" />
<glyph unicode="&#xe928;" glyph-name="remove-circle" d="M534.4 886.4c-122.212 0-239.418-48.548-325.835-134.965s-134.965-203.623-134.965-325.835c0-122.214 48.548-239.42 134.965-325.834 86.415-86.418 203.62-134.966 325.835-134.966s239.42 48.548 325.833 134.967c86.418 86.412 134.965 203.617 134.965 325.833 0 122.214-48.548 239.42-134.966 325.835-86.414 86.416-203.62 134.965-325.832 134.965zM534.4 828.8c106.935 0 209.49-42.48 285.102-118.094 75.616-75.613 118.095-178.168 118.095-285.106s-42.479-209.493-118.095-285.104c-75.612-75.617-178.166-118.096-285.103-118.096s-209.492 42.479-285.105 118.095c-75.615 75.613-118.095 178.168-118.095 285.105s42.48 209.491 118.094 285.105 178.17 118.095 285.106 118.095zM686.796 618.764c11.246 11.248 29.482 11.249 40.729 0.002 9.998-9.997 11.11-25.516 3.334-36.74l-3.332-3.989-345.562-345.6c-11.246-11.248-29.482-11.249-40.729-0.002-9.998 9.997-11.11 25.516-3.334 36.74l3.332 3.989 345.562 345.6zM341.196 618.763c9.997 9.998 25.516 11.11 36.74 3.335l3.989-3.332 345.641-345.6c11.248-11.246 11.249-29.482 0.002-40.729-9.997-9.998-25.516-11.11-36.74-3.335l-3.989 3.332-345.641 345.6c-11.248 11.246-11.249 29.482-0.002 40.729z" />
<glyph unicode="&#xe929;" glyph-name="remove" d="M795.322 740.753c14.996 14.996 39.31 14.996 54.306 0 13.633-13.633 14.872-34.966 3.718-49.999l-3.718-4.307-576-576c-14.996-14.996-39.31-14.996-54.306 0-13.633 13.633-14.872 34.966-3.718 49.999l3.718 4.307 576 576zM219.322 740.753c13.633 13.633 34.966 14.872 49.999 3.718l4.307-3.718 576-576c14.996-14.996 14.996-39.31 0-54.306-13.633-13.633-34.966-14.872-49.999-3.718l-4.307 3.718-576 576c-14.996 14.996-14.996 39.31 0 54.306z" />
<glyph unicode="&#xe92a;" glyph-name="search" d="M483.2 889.691c-89.147 0-174.642-35.413-237.678-98.45s-98.45-148.532-98.45-237.678c0-89.147 35.413-174.641 98.45-237.676 63.034-63.038 148.529-98.452 237.678-98.452s174.643 35.413 237.677 98.453c63.038 63.032 98.451 148.526 98.451 237.675s-35.413 174.644-98.452 237.679c-63.034 63.036-148.529 98.449-237.676 98.449zM483.2 831.835c73.802 0 144.581-29.318 196.766-81.504 52.189-52.185 81.506-122.963 81.506-196.768s-29.317-144.582-81.505-196.765c-52.185-52.19-122.962-81.507-196.767-81.507s-144.583 29.317-196.767 81.505c-52.187 52.186-81.505 122.964-81.505 196.767s29.318 144.582 81.504 196.768c52.186 52.186 122.966 81.504 196.768 81.504zM667.546 318.019c10.043 10.041 25.631 11.156 36.904 3.345l4.006-3.348 204.8-204.831c11.296-11.298 11.295-29.614-0.003-40.91-10.043-10.041-25.631-11.156-36.904-3.345l-4.006 3.348-204.8 204.831c-11.296 11.298-11.295 29.614 0.003 40.91z" />
<glyph unicode="&#xe92b;" glyph-name="service-partners" d="M188.8 889.587c-15.548 0-30.944-3.062-45.309-9.012-14.366-5.951-27.418-14.672-38.412-25.667s-19.716-24.046-25.666-38.411c-5.95-14.366-9.013-29.762-9.013-45.31s3.062-30.944 9.012-45.309c5.951-14.366 14.672-27.418 25.667-38.412s24.046-19.716 38.411-25.666c14.366-5.95 29.762-9.013 45.31-9.013s30.944 3.062 45.309 9.012c14.366 5.951 27.418 14.672 38.412 25.667s19.716 24.046 25.666 38.411c5.95 14.366 9.013 29.762 9.013 45.31s-3.062 30.944-9.012 45.309c-5.951 14.366-14.672 27.418-25.667 38.412s-24.046 19.716-38.411 25.666c-14.366 5.95-29.762 9.013-45.31 9.013zM188.8 825.587c7.144 0 14.218-1.407 20.819-4.141 6.599-2.734 12.596-6.741 17.648-11.792s9.059-11.049 11.793-17.649c2.733-6.6 4.141-13.674 4.141-20.818s-1.407-14.218-4.141-20.819c-2.734-6.599-6.741-12.596-11.792-17.648s-11.049-9.059-17.649-11.793c-6.6-2.733-13.674-4.141-20.818-4.141s-14.218 1.407-20.819 4.141c-6.599 2.734-12.596 6.741-17.648 11.792s-9.059 11.049-11.793 17.649c-2.733 6.6-4.141 13.674-4.141 20.818s1.407 14.218 4.141 20.819c2.734 6.599 6.741 12.596 11.792 17.648s11.049 9.059 17.649 11.793c6.6 2.733 13.674 4.141 20.818 4.141zM232.857 739.247c9.337 12.877 26.478 16.747 40.243 9.829l4.448-2.708 74.035-53.683c14.308-10.375 17.496-30.383 7.121-44.691-9.337-12.877-26.478-16.747-40.243-9.829l-4.448 2.708-74.035 53.683c-14.308 10.375-17.496 30.383-7.121 44.691zM188.8 198.387c-15.557 0-30.957-3.063-45.321-9.020-14.353-5.945-27.405-14.666-38.4-25.661-10.994-10.994-19.715-24.044-25.665-38.406-5.952-14.374-9.014-29.767-9.014-45.313s3.062-30.94 9.011-45.307c5.953-14.368 14.674-27.418 25.668-38.412 10.995-10.995 24.047-19.716 38.412-25.666 14.352-5.952 29.752-9.015 45.309-9.015s30.957 3.063 45.321 9.020c14.353 5.945 27.405 14.666 38.4 25.661 10.994 10.994 19.715 24.044 25.665 38.406 5.952 14.374 9.014 29.767 9.014 45.313s-3.062 30.94-9.011 45.307c-5.953 14.368-14.674 27.418-25.668 38.412s-24.047 19.716-38.412 25.666c-14.352 5.952-29.752 9.015-45.309 9.015zM188.8 134.387c7.148 0 14.217-1.406 20.806-4.139 6.612-2.738 12.608-6.745 17.66-11.797s9.060-11.049 11.794-17.648c2.733-6.6 4.14-13.673 4.14-20.817s-1.407-14.217-4.142-20.823c-2.731-6.593-6.739-12.589-11.791-17.642s-11.048-9.059-17.648-11.792c-6.602-2.738-13.671-4.144-20.819-4.144s-14.217 1.406-20.806 4.139c-6.612 2.738-12.608 6.745-17.66 11.797s-9.060 11.049-11.794 17.648c-2.733 6.6-4.14 13.673-4.14 20.817s1.407 14.217 4.142 20.823c2.731 6.593 6.739 12.589 11.791 17.642s11.048 9.059 17.648 11.792c6.602 2.738 13.671 4.144 20.819 4.144zM314.005 210.336c14.304 10.379 34.314 7.197 44.693-7.107 9.341-12.874 7.698-30.369-3.152-41.306l-3.955-3.387-74.035-53.719c-14.304-10.379-34.314-7.197-44.693 7.107-9.341 12.874-7.698 30.369 3.152 41.306l3.955 3.387 74.035 53.719zM880 889.587c-31.405 0-61.52-12.475-83.722-34.681-22.203-22.2-34.678-52.316-34.678-83.719s12.475-61.518 34.682-83.722c22.198-22.203 52.313-34.678 83.718-34.678s61.52 12.475 83.722 34.681c22.203 22.201 34.678 52.317 34.678 83.719s-12.476 61.519-34.682 83.723c-22.198 22.202-52.313 34.677-83.718 34.677zM880 825.587c14.429 0 28.264-5.731 38.462-15.931 10.206-10.205 15.938-24.042 15.938-38.469s-5.732-28.263-15.935-38.465c-10.202-10.204-24.036-15.935-38.465-15.935s-28.264 5.731-38.462 15.931c-10.206 10.205-15.938 24.042-15.938 38.469s5.732 28.264 15.934 38.465c10.202 10.204 24.037 15.935 38.466 15.935zM791.251 746.369c14.308 10.375 34.316 7.186 44.691-7.122 9.337-12.877 7.688-30.372-3.165-41.305l-3.956-3.386-74.035-53.683c-14.308-10.375-34.316-7.186-44.691 7.122-9.337 12.877-7.688 30.372 3.165 41.305l3.956 3.386 74.035 53.683zM880 198.387c-31.405 0-61.521-12.476-83.723-34.684-22.201-22.194-34.677-52.31-34.677-83.716s12.476-61.521 34.684-83.723c22.194-22.201 52.31-34.677 83.716-34.677s61.521 12.476 83.723 34.684c22.201 22.194 34.677 52.31 34.677 83.716s-12.476 61.521-34.684 83.723c-22.194 22.201-52.31 34.677-83.716 34.677zM880 134.387c14.429 0 28.263-5.731 38.461-15.932 10.208-10.205 15.939-24.039 15.939-38.468s-5.731-28.263-15.932-38.461c-10.205-10.208-24.039-15.939-38.468-15.939s-28.263 5.731-38.461 15.932c-10.208 10.205-15.939 24.039-15.939 38.468s5.731 28.263 15.932 38.461c10.205 10.208 24.039 15.939 38.468 15.939zM710.1 203.228c9.341 12.874 26.483 16.739 40.246 9.817l4.447-2.709 74.035-53.719c14.304-10.379 17.486-30.389 7.107-44.693-9.341-12.874-26.483-16.739-40.246-9.817l-4.447 2.709-74.035 53.719c-14.304 10.379-17.486 30.389-7.107 44.693zM534.4 716.787c-35.22 0-68.998-13.991-93.904-38.896-24.905-24.906-38.896-58.684-38.896-93.904s13.991-68.998 38.896-93.904c24.906-24.905 58.684-38.896 93.904-38.896s69 13.992 93.903 38.896c24.902 24.903 38.893 58.678 38.899 93.898-0.007 35.232-13.998 69.007-38.899 93.909-24.904 24.905-58.684 38.897-93.904 38.897zM534.4 652.787c18.245 0 35.747-7.249 48.648-20.151s20.151-30.404 20.155-48.656c-0.003-18.24-7.253-35.741-20.155-48.644-12.901-12.901-30.402-20.15-48.647-20.15-18.247 0-35.746 7.249-48.649 20.151s-20.151 30.402-20.151 48.649c0 18.247 7.249 35.746 20.151 48.649s30.402 20.151 48.649 20.151zM534.4 486.387c-54.316 0-106.407-21.577-144.815-59.983-38.409-38.413-59.985-90.502-59.985-144.817 0-17.673 14.327-32 32-32h345.6c17.673 0 32 14.327 32 32 0 54.314-21.576 106.403-59.982 144.814-38.414 38.41-90.504 59.986-144.818 59.986zM534.4 422.387c37.341 0 73.153-14.834 99.563-41.24l6.912-7.429c13.24-15.301 22.949-33.187 28.598-52.381l1.964-7.737h-274.125l2.016 7.738c6.591 22.392 18.709 43.006 35.513 59.812 26.404 26.403 62.217 41.237 99.56 41.237z" />
<glyph unicode="&#xe92c;" glyph-name="services" d="M439.529 888.856l-299.713 0.499c-9.134-0.018-18.175-1.836-26.607-5.348-8.434-3.514-16.091-8.653-22.536-15.125-6.446-6.473-11.553-14.151-15.031-22.595-3.478-8.446-5.258-17.493-5.241-26.626v-414.273c-0.027-9.038 1.745-18.087 5.216-26.536 3.476-8.453 8.576-16.131 15.013-22.605 6.456-6.483 14.103-11.619 22.524-15.134 8.457-3.521 17.493-5.339 26.621-5.358h299.586c18.533 0.057 36.191 7.427 49.192 20.494 13.005 13.079 20.285 30.772 20.248 49.204v413.77c0.038 18.357-7.235 36.042-20.221 49.109-12.988 13.067-30.628 20.448-49.051 20.523zM138.86 825.247l1.070 0.148 299.416-0.538c1.394-0.006 2.803-0.595 3.841-1.639s1.615-2.456 1.615-3.928v-413.901c0-1.539-0.58-2.955-1.623-4.005-1.029-1.034-2.44-1.623-3.916-1.628h-299.421c-0.658 0-1.382 0.147-2.062 0.43-0.65 0.271-1.267 0.685-1.784 1.205-0.497 0.5-0.906 1.116-1.184 1.791-0.272 0.662-0.411 1.383-0.411 2.111v414.43c0 0.795 0.141 1.518 0.419 2.193 0.277 0.673 0.686 1.288 1.203 1.806 0.513 0.515 1.125 0.925 1.799 1.207l1.039 0.317zM936.314 888.97l-7.853 0.426-299.302-0.54c-18.111 0.095-35.727-7.091-48.767-19.977-13.041-12.896-20.425-30.433-20.54-48.764v-185.019c0.058-9.293 1.902-18.283 5.436-26.658 3.537-8.381 8.688-15.98 15.167-22.365 6.454-6.37 14.119-11.417 22.542-14.837 8.417-3.418 17.429-5.145 26.517-5.083h299.295c18.147-0.11 35.788 7.063 48.844 19.946s20.465 30.423 20.599 48.765v185.551c-0.153 18.618-7.586 36.16-20.664 49.037-11.21 11.037-25.782 17.873-41.274 19.518zM629.046 824.856l299.74 0.5c1.568 0.011 2.908-0.533 3.9-1.509s1.556-2.308 1.567-3.698v-185.053c-0.010-1.149-0.569-2.471-1.552-3.442-0.98-0.967-2.313-1.509-3.697-1.501h-299.715c-0.908-0.005-1.583 0.125-2.214 0.381-0.628 0.255-1.198 0.63-1.682 1.108-0.494 0.486-0.876 1.050-1.142 1.681-0.259 0.613-0.396 1.283-0.401 1.974v184.618c0.009 1.174 0.561 2.487 1.535 3.45 0.973 0.961 2.29 1.499 3.66 1.492zM439.197 284.559h-299.356c-8.895 0.054-17.908-1.685-26.329-5.112-8.43-3.431-16.099-8.492-22.57-14.894-6.454-6.377-11.599-13.985-15.127-22.368-3.529-8.399-5.367-17.389-5.414-26.481v-184.832c0.095-18.506 7.467-36.058 20.495-48.969 13.032-12.914 30.656-20.124 49.001-20.048l299.334-0.499c8.961-0.054 17.986 1.682 26.416 5.118 8.404 3.415 16.078 8.476 22.556 14.874 6.476 6.395 11.628 14.002 15.162 22.393 3.53 8.375 5.379 17.375 5.435 26.473v185.326c-0.114 18.549-7.508 36.102-20.557 49.008-13.052 12.907-30.692 20.104-49.047 20.012zM139.644 220.558h299.88c1.391 0.007 2.727-0.538 3.717-1.517 0.992-0.981 1.552-2.31 1.56-3.7v-184.931c-0.004-0.495-0.145-1.182-0.414-1.818l-0.495-0.914-0.661-0.795c-0.498-0.492-1.080-0.875-1.709-1.131-0.661-0.269-1.344-0.401-2.043-0.397l-299.663 0.498c-1.566-0.006-2.891 0.536-3.872 1.508-0.983 0.974-1.538 2.295-1.545 3.674v184.504c0.004 0.52 0.142 1.197 0.411 1.837 0.26 0.618 0.647 1.19 1.128 1.666 0.498 0.493 1.070 0.87 1.699 1.126 0.645 0.262 1.327 0.394 2.006 0.39zM928.905 514.956h-299.616c-9.229-0.028-18.266-1.854-26.694-5.374-8.432-3.523-16.085-8.67-22.524-15.149s-11.539-14.161-15.008-22.609c-3.47-8.471-5.239-17.512-5.211-26.637v-414.162c-0.028-9.040 1.745-18.095 5.217-26.546 3.483-8.464 8.581-16.14 15.022-22.618 6.463-6.492 14.117-11.631 22.552-15.147 8.437-3.517 17.483-5.337 26.623-5.356l299.639 0.497c18.527 0.095 36.154 7.486 49.134 20.552 12.988 13.092 20.252 30.768 20.215 49.186v413.694c0.028 9.037-1.745 18.089-5.216 26.539-3.469 8.446-8.569 16.128-15.006 22.606-6.437 6.477-14.085 11.622-22.506 15.144-8.443 3.526-17.485 5.353-26.618 5.381zM629.385 450.956h299.327c0.729 0 1.456-0.149 2.13-0.431 0.662-0.277 1.276-0.69 1.79-1.208 0.516-0.519 0.924-1.135 1.202-1.809 0.278-0.676 0.417-1.398 0.417-2.124v-413.857c0-1.547-0.582-2.971-1.634-4.031-1.033-1.039-2.453-1.635-3.933-1.642l-299.408-0.496c-0.611 0-1.334 0.147-2.011 0.429l-0.962 0.517-0.843 0.696c-0.506 0.509-0.916 1.127-1.199 1.814-0.27 0.657-0.409 1.382-0.409 2.113v414.359c0 0.83 0.141 1.562 0.423 2.25l0.502 0.939 0.69 0.844c0.511 0.515 1.122 0.925 1.797 1.207s1.396 0.43 2.122 0.43z" />
<glyph unicode="&#xe92d;" glyph-name="settings" d="M658.883 886.81c-21.593-4.864-41.151-16.292-55.994-32.714l-36.237-39.761c-4.169-4.628-9.114-8.22-14.636-10.678s-11.497-3.727-17.544-3.727c-6.046 0-12.023 1.27-17.544 3.728-5.524 2.458-10.468 6.049-14.514 10.541l-36.151 39.921c-14.897 16.377-34.422 27.723-55.958 32.54-21.535 4.818-44.032 2.874-64.422-5.567s-37.679-22.967-49.507-41.597c-11.829-18.631-17.621-40.456-16.587-62.5l2.574-53.827c0.333-6.231-0.619-12.28-2.785-17.936s-5.497-10.794-9.778-15.079c-4.281-4.285-9.415-7.622-15.070-9.793s-11.702-3.13-17.751-2.812l-53.819 2.729c-22.148 1.059-43.991-4.724-62.636-16.553s-33.181-29.129-41.621-49.533c-8.441-20.404-10.374-42.917-5.536-64.461s16.212-41.068 32.566-55.903l39.966-36.28c4.55-4.11 8.14-9.063 10.596-14.593 2.457-5.531 3.727-11.515 3.727-17.569 0-6.051-1.269-12.033-3.726-17.562-2.457-5.531-6.047-10.483-10.536-14.538l-39.972-36.094c-16.436-14.879-27.844-34.445-32.687-56.036-4.843-21.593-2.884-44.16 5.609-64.597 8.495-20.434 23.105-37.738 41.824-49.539 18.723-11.803 40.639-17.519 62.742-16.366l53.715 2.727c6.060 0.31 12.095-0.65 17.73-2.818 5.646-2.169 10.771-5.499 15.052-9.778 4.271-4.273 7.601-9.397 9.769-15.038 2.17-5.642 3.13-11.676 2.819-17.713l-2.765-53.76c-1.019-22.212 4.792-44.025 16.63-62.636 11.837-18.609 29.125-33.116 49.508-41.544 20.386-8.43 42.877-10.365 64.404-5.54 21.517 4.815 41.034 16.157 55.879 32.477l36.309 39.995c4.113 4.556 9.059 8.142 14.577 10.592 5.535 2.46 11.514 3.729 17.565 3.729 6.048 0 12.030-1.269 17.556-3.725 5.523-2.453 10.47-6.040 14.528-10.533l36.143-39.984c15.016-16.395 34.519-27.665 56.013-32.429 21.481-4.763 43.916-2.796 64.255 5.622 20.354 8.435 37.607 22.923 49.424 41.499 11.822 18.579 17.637 40.345 16.652 62.343l-2.733 53.947c-0.313 6.061 0.647 12.095 2.817 17.741 2.17 5.642 5.499 10.766 9.768 15.032 4.282 4.282 9.409 7.614 15.042 9.778 5.646 2.171 11.682 3.132 17.73 2.823l53.772-2.73c22.102-1.124 44.016 4.62 62.726 16.442 18.708 11.82 33.299 29.142 41.778 49.59 8.477 20.459 10.412 43.032 5.544 64.627-4.859 21.589-16.291 41.152-32.721 55.992l-40.026 36.108c-4.472 4.041-8.062 8.996-10.519 14.527s-3.727 11.514-3.727 17.567c0 6.054 1.269 12.038 3.725 17.564 2.457 5.53 6.050 10.487 10.543 14.547l39.992 36.077c16.433 14.849 27.855 34.393 32.724 55.972 4.869 21.582 2.945 44.139-5.513 64.579-8.447 20.431-23.014 37.759-41.697 49.596s-40.572 17.608-62.668 16.519l-53.805-2.729c-5.962-0.291-11.982 0.68-17.608 2.853s-10.734 5.501-14.994 9.768c-4.262 4.269-7.585 9.386-9.755 15.022-2.159 5.616-3.121 11.638-2.818 17.664l2.723 53.748c1.131 22.096-4.614 44.014-16.446 62.73-11.818 18.705-29.144 33.3-49.593 41.774s-43.016 10.411-64.61 5.546zM698.993 822.139c8.244-3.416 15.228-9.299 19.993-16.842 4.771-7.547 7.086-16.376 6.63-25.283l-2.725-53.776c-0.752-14.961 1.634-29.902 7.006-43.873 5.384-13.982 13.623-26.669 24.196-37.258 10.577-10.593 23.256-18.854 37.22-24.249s28.904-7.805 43.854-7.075l53.82 2.729c8.864 0.437 17.686-1.888 25.217-6.66 7.532-4.772 13.404-11.757 16.811-19.997 3.41-8.242 4.185-17.331 2.222-26.032-1.962-8.698-6.566-16.575-13.182-22.554l-39.993-36.078c-11.149-10.076-20.047-22.354-26.138-36.059-6.093-13.711-9.239-28.548-9.239-43.554s3.147-29.841 9.239-43.551c6.088-13.707 14.987-25.988 26.118-36.046l40.032-36.114c6.606-5.966 11.21-13.846 13.169-22.547 1.965-8.716 1.185-17.815-2.23-26.057-3.419-8.244-9.302-15.228-16.842-19.992-7.544-4.766-16.381-7.082-25.294-6.629l-53.763 2.729c-14.974 0.766-29.95-1.617-43.951-7.001-13.993-5.377-26.716-13.645-37.325-24.254-10.605-10.597-18.871-23.319-24.259-37.33-5.385-14.014-7.768-28.993-6.995-43.974l2.722-53.729c0.388-8.674-1.955-17.444-6.723-24.937-4.763-7.487-11.716-13.326-19.916-16.724-8.201-3.394-17.255-4.188-25.913-2.268-8.661 1.92-16.524 6.463-22.529 13.019l-35.99 39.816c-10.048 11.127-22.326 20.030-36.034 26.117-13.702 6.089-28.538 9.236-43.539 9.236-15.004 0-29.839-3.147-43.548-9.241-13.7-6.083-25.983-14.988-36.040-26.129l-36.227-39.905c-5.962-6.554-13.826-11.125-22.5-13.066-8.685-1.946-17.747-1.167-25.961 2.23-8.22 3.399-15.191 9.249-19.963 16.751-4.771 7.501-7.114 16.295-6.707 25.177l2.756 53.582c0.771 14.985-1.613 29.964-6.997 43.966-5.381 14-13.643 26.715-24.252 37.328-10.621 10.618-23.342 18.884-37.344 24.262-13.985 5.38-28.963 7.763-43.95 6.996l-53.748-2.728c-8.951-0.467-17.78 1.836-25.322 6.59-7.545 4.756-13.434 11.731-16.856 19.963-3.421 8.231-4.211 17.326-2.259 26.024 1.952 8.7 6.55 16.587 13.161 22.572l39.944 36.069c11.137 10.058 20.038 22.339 26.129 36.051 6.092 13.71 9.239 28.545 9.239 43.549 0 15.006-3.147 29.843-9.239 43.554-6.091 13.71-14.992 25.991-26.125 36.048l-39.916 36.235c-6.598 5.985-11.181 13.852-13.13 22.532-1.95 8.681-1.171 17.751 2.23 25.973s9.258 15.191 16.77 19.958c7.512 4.766 16.312 7.096 25.198 6.671l53.668-2.722c14.953-0.786 29.964 1.591 43.997 6.981s26.777 13.671 37.401 24.306c10.624 10.634 18.893 23.386 24.269 37.424s7.738 29.050 6.935 44.062l-2.564 53.616c-0.416 8.858 1.92 17.656 6.688 25.167 4.768 7.51 11.738 13.366 19.957 16.768s17.289 4.186 25.97 2.244c8.682-1.942 16.553-6.516 22.539-13.096l36.049-39.807c9.992-11.091 22.27-20.008 35.984-26.112s28.557-9.258 43.569-9.258 29.854 3.154 43.57 9.258c13.716 6.107 25.994 15.024 36.039 26.176l36.201 39.72c6.076 6.722 13.962 11.33 22.667 13.291 6.965 1.569 14.179 1.383 21.006-0.503l5.038-1.732zM534.475 630.356c-54.317 0-106.408-21.577-144.816-59.985s-59.984-90.5-59.984-144.818c0-54.316 21.577-106.406 59.985-144.812 38.406-38.41 90.498-59.988 144.815-59.988s106.405 21.578 144.816 59.989c38.407 38.407 59.984 90.496 59.984 144.811 0 54.317-21.577 106.409-59.983 144.817-38.413 38.409-90.502 59.985-144.817 59.985zM534.475 566.356c37.342 0 73.153-14.834 99.562-41.241 26.403-26.404 41.238-62.218 41.238-99.562 0-37.341-14.834-73.152-41.239-99.556-26.409-26.409-62.22-41.244-99.561-41.244s-73.155 14.835-99.56 41.243c-26.406 26.405-41.24 62.216-41.24 99.557 0 37.345 14.834 73.158 41.239 99.563s62.218 41.24 99.561 41.24z" />
<glyph unicode="&#xe92e;" glyph-name="subscription" d="M232 630.4c-12.307 0-24.11-4.889-32.812-13.593-8.699-8.698-13.588-20.501-13.588-32.807 0-9.178 2.722-18.15 7.822-25.781 5.094-7.626 12.342-13.574 20.82-17.086s17.808-4.432 26.809-2.642c9.006 1.793 17.273 6.212 23.762 12.702 6.485 6.483 10.904 14.75 12.695 23.75 1.791 9.006 0.872 18.336-2.641 26.815s-9.46 15.726-17.093 20.825c-7.627 5.096-16.597 7.817-25.774 7.817zM228.562 601.261c3.419 0.68 6.958 0.331 10.175-1.001 3.215-1.332 5.964-3.588 7.9-6.485 1.931-2.889 2.963-6.293 2.963-9.775 0-4.668-1.855-9.146-5.157-12.447-3.297-3.298-7.775-5.153-12.443-5.153-3.481 0-6.884 1.032-9.777 2.965-2.894 1.933-5.151 4.683-6.483 7.898-1.333 3.216-1.681 6.755-1.002 10.169 0.68 3.418 2.357 6.554 4.82 9.016 2.456 2.457 5.593 4.133 9.005 4.813zM721.597 428.8c-12.31 0-24.125-4.894-32.827-13.613-8.678-8.661-13.57-20.477-13.57-32.79 0-9.179 2.724-18.156 7.828-25.788 5.081-7.613 12.329-13.562 20.81-17.076 8.477-3.513 17.802-4.428 26.791-2.647 9.045 1.806 17.317 6.225 23.809 12.733 6.451 6.434 10.87 14.706 12.667 23.707 1.79 9.033 0.875 18.358-2.638 26.835-3.514 8.481-9.463 15.729-17.103 20.828-7.607 5.088-16.584 7.81-25.766 7.81zM718.144 399.657c3.443 0.682 6.973 0.336 10.195-0.999 3.214-1.332 5.968-3.592 7.905-6.494 1.923-2.875 2.956-6.281 2.956-9.766 0-4.668-1.857-9.154-5.175-12.465-3.268-3.274-7.753-5.132-12.427-5.132-3.479 0-6.886 1.033-9.788 2.974-2.876 1.919-5.136 4.673-6.468 7.887-1.335 3.222-1.682 6.752-1.008 10.151 0.687 3.444 2.367 6.588 4.849 9.063 2.417 2.424 5.562 4.104 8.961 4.782zM851.2 745.6h-748.8c-17.673 0-32-14.327-32-32v-460.8c0-17.673 14.327-32 32-32h748.8c17.673 0 32 14.327 32 32v460.8c0 17.673-14.327 32-32 32zM819.2 681.626v-396.8h-684.8v396.8h684.8zM476.8 630.4c-39.040 0-76.481-15.508-104.086-43.114s-43.114-65.046-43.114-104.086c0-39.039 15.508-76.478 43.113-104.086 27.609-27.605 65.050-43.114 104.087-43.114s76.475 15.508 104.084 43.111c27.608 27.614 43.116 65.053 43.116 104.089s-15.509 76.478-43.112 104.084c-27.61 27.608-65.049 43.116-104.088 43.116zM476.8 566.4c22.066 0 43.227-8.765 58.833-24.37 15.601-15.603 24.367-36.766 24.367-58.83s-8.766-43.226-24.371-58.834c-15.603-15.599-36.766-24.366-58.829-24.366s-43.227 8.767-58.833 24.37c-15.602 15.603-24.367 36.764-24.367 58.83s8.766 43.228 24.369 58.831c15.603 15.603 36.765 24.369 58.831 24.369zM966.4 572.8c16.066 0 29.367-11.84 31.653-27.271l0.347-4.729v-345.6c0-23.765-9.439-46.553-26.243-63.357-14.704-14.704-33.989-23.768-54.501-25.805l-8.856-0.438h-633.6c-17.673 0-32 14.327-32 32 0 16.066 11.84 29.367 27.271 31.653l4.729 0.347h633.6c6.791 0 13.3 2.696 18.102 7.498 3.841 3.841 6.335 8.775 7.179 14.073l0.319 4.030v345.6c0 17.673 14.327 32 32 32z" />
<glyph unicode="&#xe92f;" glyph-name="upload" d="M534.436 771.087c14.315 0 26.191-10.444 28.423-24.128l0.377-4.672v-460.8c0-15.906-12.894-28.8-28.8-28.8-14.315 0-26.191 10.444-28.423 24.128l-0.377 4.672v460.8c0 15.906 12.894 28.8 28.8 28.8zM514.071 762.652c9.997 9.997 25.516 11.108 36.741 3.333l3.989-3.332 172.8-172.8c11.247-11.247 11.247-29.482 0-40.729-9.997-9.997-25.516-11.108-36.741-3.332l-3.989 3.332-152.446 152.471-152.423-152.471c-9.997-9.997-25.516-11.108-36.741-3.333l-3.989 3.332c-9.997 9.997-11.108 25.516-3.333 36.741l3.332 3.989 172.798 172.8zM966.436 310.287c14.315 0 26.191-10.444 28.423-24.128l0.377-4.672v-57.6c0-38.191-15.17-74.818-42.176-101.824-24.549-24.549-57.052-39.32-91.453-41.802l-10.371-0.374h-633.598c-38.188 0-74.815 15.172-101.825 42.177-24.549 24.552-39.319 57.054-41.802 91.452l-0.374 10.37v57.6c0 15.906 12.894 28.8 28.8 28.8 14.315 0 26.191-10.444 28.423-24.128l0.377-4.672v-57.6c0-22.913 9.103-44.89 25.305-61.093 14.18-14.178 32.779-22.92 52.557-24.884l8.539-0.423h633.598c22.915 0 44.893 9.104 61.095 25.305 14.178 14.178 22.919 32.775 24.883 52.555l0.423 8.54v57.6c0 15.906 12.894 28.8 28.8 28.8z" />
<glyph unicode="&#xe930;" glyph-name="user" d="M534.337 812.8c-48.376 0-94.77-19.217-128.976-53.424s-53.424-80.601-53.424-128.976c0-48.376 19.217-94.77 53.424-128.976s80.601-53.424 128.976-53.424c48.376 0 94.769 19.217 128.975 53.424s53.425 80.601 53.425 128.976c0 48.375-19.218 94.769-53.425 128.976s-80.6 53.424-128.975 53.424zM534.337 755.2c33.099 0 64.842-13.148 88.246-36.553s36.554-55.149 36.554-88.247c0-33.098-13.149-64.842-36.554-88.247s-55.147-36.553-88.246-36.553c-33.099 0-64.842 13.149-88.247 36.553s-36.553 55.148-36.553 88.247c0 33.099 13.149 64.842 36.553 88.247s55.148 36.553 88.247 36.553zM534.337 403.2c89.115 0 174.577-35.4 237.585-98.413 63.015-63.010 98.415-148.471 98.415-237.587 0-15.906-12.894-28.8-28.8-28.8s-28.8 12.894-28.8 28.8c0 73.838-29.331 144.648-81.544 196.857-52.207 52.212-123.017 81.543-196.856 81.543s-144.649-29.331-196.859-81.544c-52.21-52.209-81.541-123.020-81.541-196.856 0-15.906-12.894-28.8-28.8-28.8s-28.8 12.894-28.8 28.8c0 89.113 35.4 174.575 98.411 237.585 63.011 63.015 148.473 98.415 237.589 98.415z" />
</font>
</defs>
</svg>
